  0
SECTION
  2
HEADER
  9
$ACADVER
  1
AC1015
  9
$ACADMAINTVER
 70
    20
  9
$DWGCODEPAGE
  3
ANSI_932
  9
$INSBASE
 10
0.0
 20
0.0
 30
0.0
  9
$EXTMIN
 10
-0.0423235882117297
 20
-0.0299392347010326
 30
-0.0000000000000083
  9
$EXTMAX
 10
2789.553832110721
 20
1973.299297547568
 30
0.000000000000007
  9
$LIMMIN
 10
0.0
 20
0.0
  9
$LIMMAX
 10
297.0
 20
209.0
  9
$ORTHOMODE
 70
     1
  9
$REGENMODE
 70
     1
  9
$FILLMODE
 70
     1
  9
$QTEXTMODE
 70
     0
  9
$MIRRTEXT
 70
     1
  9
$LTSCALE
 40
1.0
  9
$ATTMODE
 70
     1
  9
$TEXTSIZE
 40
2.5
  9
$TRACEWID
 40
1.0
  9
$TEXTSTYLE
  7
Standard
  9
$CLAYER
  8
寸法線
  9
$CELTYPE
  6
ByLayer
  9
$CECOLOR
 62
   256
  9
$CELTSCALE
 40
3.0
  9
$DISPSILH
 70
     0
  9
$DIMSCALE
 40
10.0
  9
$DIMASZ
 40
1.5
  9
$DIMEXO
 40
2.0
  9
$DIMDLI
 40
3.75
  9
$DIMRND
 40
0.0
  9
$DIMDLE
 40
0.0
  9
$DIMEXE
 40
1.5
  9
$DIMTP
 40
0.0
  9
$DIMTM
 40
0.0
  9
$DIMTXT
 40
3.0
  9
$DIMCEN
 40
2.5
  9
$DIMTSZ
 40
0.0
  9
$DIMTOL
 70
     0
  9
$DIMLIM
 70
     0
  9
$DIMTIH
 70
     0
  9
$DIMTOH
 70
     0
  9
$DIMSE1
 70
     0
  9
$DIMSE2
 70
     0
  9
$DIMTAD
 70
     1
  9
$DIMZIN
 70
     8
  9
$DIMBLK
  1
Open30
  9
$DIMASO
 70
     1
  9
$DIMSHO
 70
     1
  9
$DIMPOST
  1

  9
$DIMAPOST
  1

  9
$DIMALT
 70
     0
  9
$DIMALTD
 70
     3
  9
$DIMALTF
 40
0.03937007874016
  9
$DIMLFAC
 40
1.0
  9
$DIMTOFL
 70
     1
  9
$DIMTVP
 40
0.0
  9
$DIMTIX
 70
     0
  9
$DIMSOXD
 70
     0
  9
$DIMSAH
 70
     0
  9
$DIMBLK1
  1

  9
$DIMBLK2
  1

  9
$DIMSTYLE
  2
ISO-25
  9
$DIMCLRD
 70
     0
  9
$DIMCLRE
 70
     0
  9
$DIMCLRT
 70
     0
  9
$DIMTFAC
 40
1.0
  9
$DIMGAP
 40
0.5
  9
$DIMJUST
 70
     0
  9
$DIMSD1
 70
     0
  9
$DIMSD2
 70
     0
  9
$DIMTOLJ
 70
     0
  9
$DIMTZIN
 70
     8
  9
$DIMALTZ
 70
     0
  9
$DIMALTTZ
 70
     0
  9
$DIMUPT
 70
     0
  9
$DIMDEC
 70
     2
  9
$DIMTDEC
 70
     2
  9
$DIMALTU
 70
     2
  9
$DIMALTTD
 70
     3
  9
$DIMTXSTY
  7
Standard
  9
$DIMAUNIT
 70
     0
  9
$DIMADEC
 70
     0
  9
$DIMALTRND
 40
0.0
  9
$DIMAZIN
 70
     0
  9
$DIMDSEP
 70
    46
  9
$DIMATFIT
 70
     0
  9
$DIMFRAC
 70
     0
  9
$DIMLDRBLK
  1
Open30
  9
$DIMLUNIT
 70
     2
  9
$DIMLWD
 70
    -2
  9
$DIMLWE
 70
    -2
  9
$DIMTMOVE
 70
     0
  9
$LUNITS
 70
     2
  9
$LUPREC
 70
     4
  9
$SKETCHINC
 40
1.0
  9
$FILLETRAD
 40
9.9
  9
$AUNITS
 70
     0
  9
$AUPREC
 70
     0
  9
$MENU
  1
.
  9
$ELEVATION
 40
0.0
  9
$PELEVATION
 40
0.0
  9
$THICKNESS
 40
0.0
  9
$LIMCHECK
 70
     0
  9
$CHAMFERA
 40
10.0
  9
$CHAMFERB
 40
10.0
  9
$CHAMFERC
 40
20.0
  9
$CHAMFERD
 40
0.0
  9
$SKPOLY
 70
     0
  9
$TDCREATE
 40
2453510.558637211
  9
$TDUCREATE
 40
2453510.183637211
  9
$TDUPDATE
 40
2457528.754789838
  9
$TDUUPDATE
 40
2457528.379789838
  9
$TDINDWG
 40
0.0854404051
  9
$TDUSRTIMER
 40
0.0854402199
  9
$USRTIMER
 70
     1
  9
$ANGBASE
 50
0.0
  9
$ANGDIR
 70
     0
  9
$PDMODE
 70
     0
  9
$PDSIZE
 40
0.0
  9
$PLINEWID
 40
0.0
  9
$SPLFRAME
 70
     0
  9
$SPLINETYPE
 70
     6
  9
$SPLINESEGS
 70
     8
  9
$HANDSEED
  5
4E61
  9
$SURFTAB1
 70
     6
  9
$SURFTAB2
 70
     6
  9
$SURFTYPE
 70
     6
  9
$SURFU
 70
     6
  9
$SURFV
 70
     6
  9
$UCSBASE
  2

  9
$UCSNAME
  2

  9
$UCSORG
 10
0.0
 20
0.0
 30
0.0
  9
$UCSXDIR
 10
1.0
 20
0.0
 30
0.0
  9
$UCSYDIR
 10
0.0
 20
1.0
 30
0.0
  9
$UCSORTHOREF
  2

  9
$UCSORTHOVIEW
 70
     0
  9
$UCSORGTOP
 10
0.0
 20
0.0
 30
0.0
  9
$UCSORGBOTTOM
 10
0.0
 20
0.0
 30
0.0
  9
$UCSORGLEFT
 10
0.0
 20
0.0
 30
0.0
  9
$UCSORGRIGHT
 10
0.0
 20
0.0
 30
0.0
  9
$UCSORGFRONT
 10
0.0
 20
0.0
 30
0.0
  9
$UCSORGBACK
 10
0.0
 20
0.0
 30
0.0
  9
$PUCSBASE
  2

  9
$PUCSNAME
  2

  9
$PUCSORG
 10
0.0
 20
0.0
 30
0.0
  9
$PUCSXDIR
 10
1.0
 20
0.0
 30
0.0
  9
$PUCSYDIR
 10
0.0
 20
1.0
 30
0.0
  9
$PUCSORTHOREF
  2

  9
$PUCSORTHOVIEW
 70
     0
  9
$PUCSORGTOP
 10
0.0
 20
0.0
 30
0.0
  9
$PUCSORGBOTTOM
 10
0.0
 20
0.0
 30
0.0
  9
$PUCSORGLEFT
 10
0.0
 20
0.0
 30
0.0
  9
$PUCSORGRIGHT
 10
0.0
 20
0.0
 30
0.0
  9
$PUCSORGFRONT
 10
0.0
 20
0.0
 30
0.0
  9
$PUCSORGBACK
 10
0.0
 20
0.0
 30
0.0
  9
$USERI1
 70
     0
  9
$USERI2
 70
     0
  9
$USERI3
 70
     0
  9
$USERI4
 70
     0
  9
$USERI5
 70
     0
  9
$USERR1
 40
0.0
  9
$USERR2
 40
0.0
  9
$USERR3
 40
0.0
  9
$USERR4
 40
0.0
  9
$USERR5
 40
0.0
  9
$WORLDVIEW
 70
     1
  9
$SHADEDGE
 70
     3
  9
$SHADEDIF
 70
    70
  9
$TILEMODE
 70
     1
  9
$MAXACTVP
 70
    48
  9
$PINSBASE
 10
0.0
 20
0.0
 30
0.0
  9
$PLIMCHECK
 70
     0
  9
$PEXTMIN
 10
0.0
 20
0.0
 30
0.0
  9
$PEXTMAX
 10
0.0
 20
0.0
 30
0.0
  9
$PLIMMIN
 10
0.0
 20
0.0
  9
$PLIMMAX
 10
12.0
 20
9.0
  9
$UNITMODE
 70
     0
  9
$VISRETAIN
 70
     1
  9
$PLINEGEN
 70
     0
  9
$PSLTSCALE
 70
     1
  9
$TREEDEPTH
 70
  3020
  9
$CMLSTYLE
  2
Standard
  9
$CMLJUST
 70
     0
  9
$CMLSCALE
 40
20.0
  9
$PROXYGRAPHICS
 70
     1
  9
$MEASUREMENT
 70
     1
  9
$CELWEIGHT
370
    -1
  9
$ENDCAPS
280
     0
  9
$JOINSTYLE
280
     0
  9
$LWDISPLAY
290
     0
  9
$INSUNITS
 70
     4
  9
$HYPERLINKBASE
  1

  9
$STYLESHEET
  1
MONOCHROME.CTB
  9
$XEDIT
290
     1
  9
$CEPSNTYPE
380
     0
  9
$PSTYLEMODE
290
     1
  9
$FINGERPRINTGUID
  2

  9
$VERSIONGUID
  2
{99B01E8F-B678-4936-A926-625A69731C6C}
  9
$EXTNAMES
290
     1
  9
$PSVPSCALE
 40
0.0
  9
$OLESTARTUP
290
     0
  0
ENDSEC
  0
SECTION
  2
CLASSES
  0
CLASS
  1
ACDBDICTIONARYWDFLT
  2
AcDbDictionaryWithDefault
  3
ObjectDBX Classes
 90
        0
280
     0
281
     0
  0
CLASS
  1
ACDBPLACEHOLDER
  2
AcDbPlaceHolder
  3
ObjectDBX Classes
 90
        0
280
     0
281
     0
  0
CLASS
  1
LAYOUT
  2
AcDbLayout
  3
ObjectDBX Classes
 90
        0
280
     0
281
     0
  0
CLASS
  1
DICTIONARYVAR
  2
AcDbDictionaryVar
  3
ObjectDBX Classes
 90
        0
280
     0
281
     0
  0
CLASS
  1
MATERIAL
  2
AcDbMaterial
  3
ObjectDBX Classes
 90
     1153
280
     0
281
     0
  0
CLASS
  1
VISUALSTYLE
  2
AcDbVisualStyle
  3
ObjectDBX Classes
 90
     4095
280
     0
281
     0
  0
CLASS
  1
TABLESTYLE
  2
AcDbTableStyle
  3
ObjectDBX Classes
 90
     4095
280
     0
281
     0
  0
CLASS
  1
SCALE
  2
AcDbScale
  3
ObjectDBX Classes
 90
     1153
280
     0
281
     0
  0
CLASS
  1
MLEADERSTYLE
  2
AcDbMLeaderStyle
  3
ACDB_MLEADERSTYLE_CLASS
 90
     4095
280
     0
281
     0
  0
CLASS
  1
ACDBSECTIONVIEWSTYLE
  2
AcDbSectionViewStyle
  3
ObjectDBX Classes
 90
     1025
280
     0
281
     0
  0
CLASS
  1
ACDBDETAILVIEWSTYLE
  2
AcDbDetailViewStyle
  3
ObjectDBX Classes
 90
     1025
280
     0
281
     0
  0
CLASS
  1
CELLSTYLEMAP
  2
AcDbCellStyleMap
  3
ObjectDBX Classes
 90
     1152
280
     0
281
     0
  0
CLASS
  1
SORTENTSTABLE
  2
AcDbSortentsTable
  3
ObjectDBX Classes
 90
        0
280
     0
281
     0
  0
CLASS
  1
ACARRAYJIGENTITY
  2
AcArrayJigEntity
  3
ACAD_ARRAY
 90
      129
280
     0
281
     1
  0
CLASS
  1
ACDBASSOCNETWORK
  2
AcDbAssocNetwork
  3
ObjectDBX Classes
 90
     1025
280
     0
281
     0
  0
CLASS
  1
ACDBASSOCACTION
  2
AcDbAssocAction
  3
ObjectDBX Classes
 90
     1025
280
     0
281
     0
  0
CLASS
  1
ACDBASSOCARRAYACTIONBODY
  2
AcDbAssocArrayActionBody
  3
ObjectDBX Classes
 90
     1025
280
     0
281
     0
  0
CLASS
  1
ACDBASSOCVERTEXACTIONPARAM
  2
AcDbAssocVertexActionParam
  3
ObjectDBX Classes
 90
     1025
280
     0
281
     0
  0
CLASS
  1
ACDBASSOCDEPENDENCY
  2
AcDbAssocDependency
  3
ObjectDBX Classes
 90
     1025
280
     0
281
     0
  0
CLASS
  1
ACDBASSOCARRAYRECTANGULARPARAMETERS
  2
AcDbAssocArrayRectangularParameters
  3
ObjectDBX Classes
 90
    33793
280
     0
281
     0
  0
ENDSEC
  0
SECTION
  2
TABLES
  0
TABLE
  2
VPORT
  5
55A
102
{ACAD_XDICTIONARY
360
3179
102
}
330
0
100
AcDbSymbolTable
 70
     1
  0
VPORT
  5
14AF
330
55A
100
AcDbSymbolTableRecord
100
AcDbViewportTableRecord
  2
*Active
 70
     0
 10
0.0
 20
0.0
 11
1.0
 21
1.0
 12
1394.755754261254
 22
986.6346791564337
 13
0.0
 23
0.0
 14
10.0
 24
10.0
 15
10.0
 25
10.0
 16
0.0
 26
0.0
 36
1.0
 17
0.0
 27
0.0
 37
0.0
 40
1990.38972009739
 41
1.754689754689754
 42
50.0
 43
0.0
 44
0.0
 50
0.0
 51
0.0
 71
     0
 72
   100
 73
     1
 74
     3
 75
     0
 76
     0
 77
     0
 78
     0
281
     0
 65
     1
110
0.0
120
0.0
130
0.0
111
1.0
121
0.0
131
0.0
112
0.0
122
1.0
132
0.0
 79
     0
146
0.0
1001
ACAD_NAV_VCDISPLAY
1070
     3
  0
ENDTAB
  0
TABLE
  2
LTYPE
  5
555
330
0
100
AcDbSymbolTable
 70
     5
  0
LTYPE
  5
556
330
555
100
AcDbSymbolTableRecord
100
AcDbLinetypeTableRecord
  2
ByBlock
 70
     0
  3

 72
    65
 73
     0
 40
0.0
  0
LTYPE
  5
557
330
555
100
AcDbSymbolTableRecord
100
AcDbLinetypeTableRecord
  2
ByLayer
 70
     0
  3

 72
    65
 73
     0
 40
0.0
  0
LTYPE
  5
8
330
555
100
AcDbSymbolTableRecord
100
AcDbLinetypeTableRecord
  2
Continuous
 70
     0
  3
Solid line
 72
    65
 73
     0
 40
0.0
  0
LTYPE
  5
129
330
555
100
AcDbSymbolTableRecord
100
AcDbLinetypeTableRecord
  2
HIDDEN
 70
     0
  3
Hidden __ __ __ __ __ __ __ __ __ __ __ __ __ _
 72
    65
 73
     2
 40
9.524999999999996
 49
6.349999999999998
 74
     0
 49
-3.174999999999998
 74
     0
  0
LTYPE
  5
210
330
555
100
AcDbSymbolTableRecord
100
AcDbLinetypeTableRecord
  2
CENTER
 70
     0
  3
------ - ------ - ----
 72
    65
 73
     4
 40
10.0
 49
6.25
 74
     0
 49
-1.25
 74
     0
 49
1.25
 74
     0
 49
-1.25
 74
     0
  0
ENDTAB
  0
TABLE
  2
LAYER
  5
552
102
{ACAD_XDICTIONARY
360
15C6
102
}
330
0
100
AcDbSymbolTable
 70
    13
  0
LAYER
  5
64
102
{ACAD_XDICTIONARY
360
1506
102
}
330
552
100
AcDbSymbolTableRecord
100
AcDbLayerTableRecord
  2
0
 70
     0
 62
     7
  6
Continuous
370
    -3
390
5
  0
LAYER
  5
6A
102
{ACAD_XDICTIONARY
360
1508
102
}
330
552
100
AcDbSymbolTableRecord
100
AcDbLayerTableRecord
  2
本体
 70
     0
 62
     7
  6
Continuous
370
    13
390
5
  0
LAYER
  5
4
102
{ACAD_XDICTIONARY
360
150A
102
}
330
552
100
AcDbSymbolTableRecord
100
AcDbLayerTableRecord
  2
寸法線
 70
     0
 62
     2
  6
Continuous
370
     9
390
5
  0
LAYER
  5
67
102
{ACAD_XDICTIONARY
360
150E
102
}
330
552
100
AcDbSymbolTableRecord
100
AcDbLayerTableRecord
  2
エンボス
 70
     0
 62
     4
  6
Continuous
370
     5
390
5
  0
LAYER
  5
11
102
{ACAD_XDICTIONARY
360
1510
102
}
330
552
100
AcDbSymbolTableRecord
100
AcDbLayerTableRecord
  2
外枠
 70
     0
 62
     7
  6
Continuous
370
    -3
390
5
  0
LAYER
  5
F4
330
552
100
AcDbSymbolTableRecord
100
AcDbLayerTableRecord
  2
Defpoints
 70
     0
 62
     7
  6
Continuous
290
     0
370
    -3
390
5
  0
LAYER
  5
13AF
102
{ACAD_XDICTIONARY
360
1514
102
}
330
552
100
AcDbSymbolTableRecord
100
AcDbLayerTableRecord
  2
ゴム
 70
     0
 62
    51
  6
Continuous
370
    13
390
5
  0
LAYER
  5
13B4
102
{ACAD_XDICTIONARY
360
1516
102
}
330
552
100
AcDbSymbolTableRecord
100
AcDbLayerTableRecord
  2
嵩上断面
 70
     0
 62
   112
  6
Continuous
370
    13
390
5
  0
LAYER
  5
13B9
102
{ACAD_XDICTIONARY
360
1518
102
}
330
552
100
AcDbSymbolTableRecord
100
AcDbLayerTableRecord
  2
嵩上平面
 70
     0
 62
   112
  6
HIDDEN
370
    13
390
5
  0
LAYER
  5
15C4
102
{ACAD_XDICTIONARY
360
15C5
102
}
330
552
100
AcDbSymbolTableRecord
100
AcDbLayerTableRecord
  2
中心線
 70
     0
 62
     1
  6
HIDDEN
370
    13
390
5
  0
ENDTAB
  0
TABLE
  2
STYLE
  5
553
330
0
100
AcDbSymbolTable
 70
     4
  0
STYLE
  5
9
330
553
100
AcDbSymbolTableRecord
100
AcDbTextStyleTableRecord
  2
Standard
 70
     0
 40
0.0
 41
1.0
 50
0.0
 71
     0
 42
2.5
  3

  4

1001
ACAD
1000
MS Gothic
1071
    32817
  0
ENDTAB
  0
TABLE
  2
VIEW
  5
558
330
0
100
AcDbSymbolTable
 70
     0
  0
ENDTAB
  0
TABLE
  2
UCS
  5
559
330
0
100
AcDbSymbolTable
 70
     0
  0
ENDTAB
  0
TABLE
  2
APPID
  5
55C
330
0
100
AcDbSymbolTable
 70
     4
  0
APPID
  5
A
330
55C
100
AcDbSymbolTableRecord
100
AcDbRegAppTableRecord
  2
ACAD
 70
     0
  0
APPID
  5
151C
330
55C
100
AcDbSymbolTableRecord
100
AcDbRegAppTableRecord
  2
ACAD_NAV_VCDISPLAY
 70
     0
  0
APPID
  5
30CE
330
55C
100
AcDbSymbolTableRecord
100
AcDbRegAppTableRecord
  2
ACAD_EXEMPT_FROM_CAD_STANDARDS
 70
     0
  0
APPID
  5
3166
330
55C
100
AcDbSymbolTableRecord
100
AcDbRegAppTableRecord
  2
ACAD_MLEADERVER
 70
     0
  0
ENDTAB
  0
TABLE
  2
DIMSTYLE
  5
55D
330
0
100
AcDbSymbolTable
 70
     2
100
AcDbDimStyleTable
 71
     1
340
E6
  0
DIMSTYLE
105
E6
102
{ACAD_REACTORS
330
F9
330
106
330
2329
330
232A
330
296D
330
4B64
330
4B66
330
4B6B
330
4BE0
330
4C92
102
}
330
55D
100
AcDbSymbolTableRecord
100
AcDbDimStyleTableRecord
  2
ISO-25
 70
     0
 40
10.0
 41
1.5
 42
2.0
 43
3.75
 44
1.5
 73
     0
 74
     0
 77
     1
 78
     8
140
3.0
141
2.5
143
0.03937007874016
147
0.5
171
     3
172
     1
271
     2
272
     2
274
     3
283
     0
284
     8
289
     0
340
9
341
DF
342
DF
  0
DIMSTYLE
105
F79
330
55D
100
AcDbSymbolTableRecord
100
AcDbDimStyleTableRecord
  2
Standard
 70
     0
340
9
  0
ENDTAB
  0
TABLE
  2
BLOCK_RECORD
  5
1
330
0
100
AcDbSymbolTable
 70
    40
  0
BLOCK_RECORD
  5
2
102
{ACAD_XDICTIONARY
360
540
102
}
330
1
100
AcDbSymbolTableRecord
100
AcDbBlockTableRecord
  2
*Model_Space
340
544
  0
BLOCK_RECORD
  5
546
102
{ACAD_XDICTIONARY
360
547
102
}
330
1
100
AcDbSymbolTableRecord
100
AcDbBlockTableRecord
  2
*Paper_Space
340
54B
  0
BLOCK_RECORD
  5
54C
102
{ACAD_XDICTIONARY
360
54D
102
}
330
1
100
AcDbSymbolTableRecord
100
AcDbBlockTableRecord
  2
*Paper_Space0
340
551
  0
BLOCK_RECORD
  5
DF
330
1
100
AcDbSymbolTableRecord
100
AcDbBlockTableRecord
  2
_Open30
340
0
102
{BLKREFS
331
4CD2
331
4CD3
331
4CDB
331
4CDC
331
4CE6
331
4CE7
331
4CEF
331
4CF0
331
4CF8
331
4CF9
331
4D03
331
4D04
331
4D0C
331
4D0D
331
4D15
331
4D16
331
4D1E
331
4D1F
331
4D27
331
4D28
102
}
  0
BLOCK_RECORD
  5
52E
330
1
100
AcDbSymbolTableRecord
100
AcDbBlockTableRecord
  2
平ゴムパッキン
340
0
102
{BLKREFS
331
4BE4
331
4BE5
102
}
  0
BLOCK_RECORD
  5
14A
330
1
100
AcDbSymbolTableRecord
100
AcDbBlockTableRecord
  2
A$C13EC0CC9
340
0
102
{BLKREFS
331
2330
331
2336
331
2338
331
232E
331
4DDB
331
4DDC
331
4DE3
331
4DE4
331
4DE9
331
239B
331
23A2
331
23AA
331
23AD
331
23B4
331
23BB
102
}
  0
BLOCK_RECORD
  5
20D
330
1
100
AcDbSymbolTableRecord
100
AcDbBlockTableRecord
  2
TB6
340
0
102
{BLKREFS
331
CAE
331
148E
331
20C
331
2D1
331
215
331
216
102
}
1001
ACAD
1000
DesignCenter Data
1002
{
1070
     1
1070
     4
1002
}
  0
BLOCK_RECORD
  5
262
330
1
100
AcDbSymbolTableRecord
100
AcDbBlockTableRecord
  2
A$C61D83440
340
0
102
{BLKREFS
331
2331
331
232C
331
232D
331
232F
331
4DD9
331
4DDA
102
}
  0
BLOCK_RECORD
  5
FA
330
1
100
AcDbSymbolTableRecord
100
AcDbBlockTableRecord
  2
*D8
340
0
  0
BLOCK_RECORD
  5
107
330
1
100
AcDbSymbolTableRecord
100
AcDbBlockTableRecord
  2
*D9
340
0
  0
BLOCK_RECORD
  5
C0F
330
1
100
AcDbSymbolTableRecord
100
AcDbBlockTableRecord
  2
HGIB詳細
340
0
102
{BLKREFS
331
C95
102
}
1001
ACAD
1000
DesignCenter Data
1002
{
1070
     1
1070
     4
1002
}
  0
BLOCK_RECORD
  5
14A0
330
1
100
AcDbSymbolTableRecord
100
AcDbBlockTableRecord
  2
清水
340
0
102
{BLKREFS
331
14A6
102
}
1001
ACAD
1000
DesignCenter Data
1002
{
1070
     1
1070
     4
1002
}
  0
BLOCK_RECORD
  5
15A8
102
{ACAD_XDICTIONARY
360
15A9
102
}
330
1
100
AcDbSymbolTableRecord
100
AcDbBlockTableRecord
  2
GFB新
340
0
102
{BLKREFS
331
23C5
102
}
1001
ACAD
1000
DesignCenter Data
1002
{
1070
     1
1070
     4
1002
}
  0
BLOCK_RECORD
  5
3057
330
1
100
AcDbSymbolTableRecord
100
AcDbBlockTableRecord
  2
*D24
340
0
  0
BLOCK_RECORD
  5
3063
330
1
100
AcDbSymbolTableRecord
100
AcDbBlockTableRecord
  2
*D25
340
0
  0
BLOCK_RECORD
  5
3087
330
1
100
AcDbSymbolTableRecord
100
AcDbBlockTableRecord
  2
*D26
340
0
  0
BLOCK_RECORD
  5
3167
102
{ACAD_XDICTIONARY
360
316B
102
}
330
1
100
AcDbSymbolTableRecord
100
AcDbBlockTableRecord
  2
鎌下
340
0
102
{BLKREFS
331
316E
102
}
1001
ACAD
1000
DesignCenter Data
1002
{
1070
     1
1070
     4
1002
}
  0
BLOCK_RECORD
  5
337A
330
1
100
AcDbSymbolTableRecord
100
AcDbBlockTableRecord
  2
P-H55
340
0
102
{BLKREFS
331
4BE3
331
4BE6
102
}
  0
BLOCK_RECORD
  5
4B78
330
1
100
AcDbSymbolTableRecord
100
AcDbBlockTableRecord
  2
*D30
340
0
  0
BLOCK_RECORD
  5
4B84
330
1
100
AcDbSymbolTableRecord
100
AcDbBlockTableRecord
  2
*D31
340
0
  0
BLOCK_RECORD
  5
4B90
330
1
100
AcDbSymbolTableRecord
100
AcDbBlockTableRecord
  2
*D32
340
0
  0
BLOCK_RECORD
  5
4BE7
330
1
100
AcDbSymbolTableRecord
100
AcDbBlockTableRecord
  2
*D33
340
0
  0
BLOCK_RECORD
  5
4C95
330
1
100
AcDbSymbolTableRecord
100
AcDbBlockTableRecord
  2
*D35
340
0
  0
BLOCK_RECORD
  5
4D7B
102
{ACAD_REACTORS
330
4DB9
102
}
330
1
100
AcDbSymbolTableRecord
100
AcDbBlockTableRecord
  2
*U36
340
0
102
{BLKREFS
331
4DBD
331
4DBE
331
4DBF
331
4DC0
331
4DC1
331
4DC2
331
4DC3
331
4DC4
331
4DC5
331
4DC6
331
4DC7
331
4DC8
331
4DC9
331
4DCA
331
4DCB
331
4DCC
102
}
  0
BLOCK_RECORD
  5
4D7E
102
{ACAD_XDICTIONARY
360
4E5B
102
}
102
{ACAD_REACTORS
330
4DB8
102
}
330
1
100
AcDbSymbolTableRecord
100
AcDbBlockTableRecord
  2
*U37
340
0
102
{BLKREFS
331
4D81
102
}
  0
BLOCK_RECORD
  5
4DCE
102
{ACAD_REACTORS
330
4DF6
102
}
330
1
100
AcDbSymbolTableRecord
100
AcDbBlockTableRecord
  2
*U38
340
0
102
{BLKREFS
331
4DFA
331
4DFB
331
4DFC
331
4DFD
331
4DFE
331
4DFF
331
4E00
331
4E01
331
4E02
331
4E03
331
4E04
331
4E05
331
4E06
331
4E07
331
4E08
331
4E09
331
4E0A
331
4E0B
331
4E0C
331
4E0D
331
4E0E
331
4E0F
331
4E10
331
4E11
331
4E12
331
4E13
331
4E14
331
4E15
331
4E16
331
4E17
331
4E18
331
4E19
102
}
  0
BLOCK_RECORD
  5
4DD1
102
{ACAD_XDICTIONARY
360
4E5E
102
}
102
{ACAD_REACTORS
330
4DF5
102
}
330
1
100
AcDbSymbolTableRecord
100
AcDbBlockTableRecord
  2
*U39
340
0
102
{BLKREFS
331
4DD4
102
}
  0
ENDTAB
  0
ENDSEC
  0
SECTION
  2
BLOCKS
  0
BLOCK
  5
542
330
2
100
AcDbEntity
  8
0
100
AcDbBlockBegin
  2
*Model_Space
 70
     0
 10
0.0
 20
0.0
 30
0.0
  3
*Model_Space
  1

  0
ENDBLK
  5
543
330
2
100
AcDbEntity
  8
0
100
AcDbBlockEnd
  0
BLOCK
  5
549
330
546
100
AcDbEntity
 67
     1
  8
0
100
AcDbBlockBegin
  2
*Paper_Space
 70
     0
 10
0.0
 20
0.0
 30
0.0
  3
*Paper_Space
  1

  0
ENDBLK
  5
54A
330
546
100
AcDbEntity
 67
     1
  8
0
100
AcDbBlockEnd
  0
BLOCK
  5
54F
330
54C
100
AcDbEntity
 67
     1
  8
0
100
AcDbBlockBegin
  2
*Paper_Space0
 70
     0
 10
0.0
 20
0.0
 30
0.0
  3
*Paper_Space0
  1

  0
ENDBLK
  5
550
330
54C
100
AcDbEntity
 67
     1
  8
0
100
AcDbBlockEnd
  0
BLOCK
  5
E3
330
DF
100
AcDbEntity
  8
0
100
AcDbBlockBegin
  2
_Open30
 70
     0
 10
0.0
 20
0.0
 30
0.0
  3
_Open30
  1

  0
LINE
  5
E0
330
DF
100
AcDbEntity
  8
0
  6
ByBlock
 62
     0
370
    -2
100
AcDbLine
 10
-1.0
 20
0.26794919
 30
0.0
 11
0.0
 21
0.0
 31
0.0
  0
LINE
  5
E1
330
DF
100
AcDbEntity
  8
0
  6
ByBlock
 62
     0
370
    -2
100
AcDbLine
 10
0.0
 20
0.0
 30
0.0
 11
-1.0
 21
-0.26794919
 31
0.0
  0
LINE
  5
E2
330
DF
100
AcDbEntity
  8
0
  6
ByBlock
 62
     0
370
    -2
100
AcDbLine
 10
0.0
 20
0.0
 30
0.0
 11
-1.0
 21
0.0
 31
0.0
  0
ENDBLK
  5
E4
330
DF
100
AcDbEntity
  8
0
100
AcDbBlockEnd
  0
BLOCK
  5
53D
330
52E
100
AcDbEntity
  8
0
100
AcDbBlockBegin
  2
平ゴムパッキン
 70
     0
 10
0.0
 20
0.0
 30
0.0
  3
平ゴムパッキン
  1

  0
LINE
  5
11E0
330
52E
100
AcDbEntity
  8
0
100
AcDbLine
 10
3.000005000000001
 20
-0.0000109999999998
 30
0.0
 11
3.000005000000001
 21
-40.000011
 31
0.0
  0
LINE
  5
11E1
330
52E
100
AcDbEntity
  8
0
100
AcDbLine
 10
3.000005000000001
 20
-0.0000109999999998
 30
0.0
 11
8.000005000000001
 21
-0.0000109999999998
 31
0.0
  0
LINE
  5
11E2
330
52E
100
AcDbEntity
  8
0
100
AcDbLine
 10
3.000005000000001
 20
-40.000011
 30
0.0
 11
8.000005000000001
 21
-40.000011
 31
0.0
  0
LINE
  5
11E3
330
52E
100
AcDbEntity
  8
0
100
AcDbLine
 10
8.000005000000001
 20
-0.0000109999999998
 30
0.0
 11
8.000005000000001
 21
-10.000011
 31
0.0
  0
LINE
  5
11E4
330
52E
100
AcDbEntity
  8
0
100
AcDbLine
 10
8.000005000000001
 20
-30.000011
 30
0.0
 11
8.000005000000001
 21
-40.000011
 31
0.0
  0
LINE
  5
11E5
330
52E
100
AcDbEntity
  8
0
100
AcDbLine
 10
8.000005000000001
 20
-10.000011
 30
0.0
 11
8.000005000000001
 21
-30.000011
 31
0.0
  0
LINE
  5
11E6
330
52E
100
AcDbEntity
  8
0
 62
     1
100
AcDbLine
 10
5.874546000000002
 20
-40.000011
 30
0.0
 11
8.000005000000001
 21
-36.318608
 31
0.0
  0
LINE
  5
11E7
330
52E
100
AcDbEntity
  8
0
 62
     1
100
AcDbLine
 10
3.000005000000001
 20
-38.978862
 30
0.0
 11
8.000005000000001
 21
-30.318608
 31
0.0
  0
LINE
  5
11E8
330
52E
100
AcDbEntity
  8
0
 62
     1
100
AcDbLine
 10
3.000005000000001
 20
-32.978862
 30
0.0
 11
8.000005000000001
 21
-24.31860866666666
 31
0.0
  0
LINE
  5
11E9
330
52E
100
AcDbEntity
  8
0
 62
     1
100
AcDbLine
 10
3.000005000000001
 20
-26.978862
 30
0.0
 11
8.000005000000001
 21
-18.31860866666667
 31
0.0
  0
LINE
  5
11EA
330
52E
100
AcDbEntity
  8
0
 62
     1
100
AcDbLine
 10
3.000005000000001
 20
-20.978862
 30
0.0
 11
8.000005000000001
 21
-12.31860866666666
 31
0.0
  0
LINE
  5
11EB
330
52E
100
AcDbEntity
  8
0
 62
     1
100
AcDbLine
 10
3.000005000000001
 20
-14.978862
 30
0.0
 11
8.000005000000001
 21
-6.318608000000001
 31
0.0
  0
LINE
  5
11EC
330
52E
100
AcDbEntity
  8
0
 62
     1
100
AcDbLine
 10
3.000005000000001
 20
-8.978861999999997
 30
0.0
 11
8.000005000000001
 21
-0.3186080000000002
 31
0.0
  0
LINE
  5
11ED
330
52E
100
AcDbEntity
  8
0
 62
     1
100
AcDbLine
 10
3.000005000000001
 20
-2.978861999999999
 30
0.0
 11
4.719844999999998
 21
-0.0000109999999998
 31
0.0
  0
ENDBLK
  5
53E
330
52E
100
AcDbEntity
  8
0
100
AcDbBlockEnd
  0
BLOCK
  5
159
330
14A
100
AcDbEntity
  8
0
100
AcDbBlockBegin
  2
A$C13EC0CC9
 70
     0
 10
0.0
 20
0.0
 30
0.0
  3
A$C13EC0CC9
  1

  0
LINE
  5
14B
330
14A
100
AcDbEntity
  8
0
  6
Continuous
100
AcDbLine
 10
0.0
 20
-15.5
 30
0.0
 11
5.0
 21
-17.5
 31
0.0
  0
LINE
  5
14C
330
14A
100
AcDbEntity
  8
0
  6
Continuous
100
AcDbLine
 10
4.999999999999999
 20
-92.5
 30
0.0
 11
-0.0000000000000018
 21
-90.50000000000002
 31
0.0
  0
LINE
  5
14D
330
14A
100
AcDbEntity
  8
0
  6
Continuous
100
AcDbLine
 10
4.999999999999999
 20
-85.50000000000002
 30
0.0
 11
-0.0000000000000018
 21
-87.50000000000001
 31
0.0
  0
LINE
  5
14E
330
14A
100
AcDbEntity
  8
0
  6
Continuous
100
AcDbLine
 10
5.0
 20
-76.50000000000002
 30
0.0
 11
0.0
 21
-78.50000000000001
 31
0.0
  0
LINE
  5
14F
330
14A
100
AcDbEntity
  8
0
  6
Continuous
100
AcDbLine
 10
0.0
 20
-71.50000000000002
 30
0.0
 11
5.0
 21
-73.50000000000001
 31
0.0
  0
LINE
  5
150
330
14A
100
AcDbEntity
  8
0
  6
Continuous
100
AcDbLine
 10
0.0
 20
-43.5
 30
0.0
 11
5.0
 21
-45.49999999999999
 31
0.0
  0
LINE
  5
151
330
14A
100
AcDbEntity
  8
0
  6
Continuous
100
AcDbLine
 10
5.0
 20
-48.5
 30
0.0
 11
0.0
 21
-50.5
 31
0.0
  0
LINE
  5
152
330
14A
100
AcDbEntity
  8
0
  6
Continuous
100
AcDbLine
 10
5.0
 20
-64.50000000000001
 30
0.0
 11
-0.0000000000000009
 21
-62.5
 31
0.0
  0
LINE
  5
153
330
14A
100
AcDbEntity
  8
0
  6
Continuous
100
AcDbLine
 10
-0.0000000000000009
 20
-59.50000000000001
 30
0.0
 11
5.0
 21
-57.5
 31
0.0
  0
LINE
  5
154
330
14A
100
AcDbEntity
  8
0
  6
Continuous
100
AcDbLine
 10
-0.0000000000000009
 20
-31.50000000000001
 30
0.0
 11
5.0
 21
-29.50000000000001
 31
0.0
  0
LINE
  5
155
330
14A
100
AcDbEntity
  8
0
  6
Continuous
100
AcDbLine
 10
5.0
 20
-36.50000000000001
 30
0.0
 11
-0.0000000000000009
 21
-34.50000000000001
 31
0.0
  0
LINE
  5
156
330
14A
100
AcDbEntity
  8
0
  6
Continuous
100
AcDbLine
 10
5.0
 20
-20.5
 30
0.0
 11
0.0
 21
-22.5
 31
0.0
  0
LINE
  5
157
330
14A
100
AcDbEntity
  8
0
  6
Continuous
100
AcDbLine
 10
-0.0000000000000009
 20
-3.500000000000001
 30
0.0
 11
5.0
 21
-1.5
 31
0.0
  0
LINE
  5
158
330
14A
100
AcDbEntity
  8
0
  6
Continuous
100
AcDbLine
 10
5.0
 20
-8.500000000000001
 30
0.0
 11
-0.0000000000000009
 21
-6.5
 31
0.0
  0
ENDBLK
  5
15A
330
14A
100
AcDbEntity
  8
0
100
AcDbBlockEnd
  0
BLOCK
  5
213
330
20D
100
AcDbEntity
  8
0
100
AcDbBlockBegin
  2
TB6
 70
     0
 10
0.0
 20
0.0
 30
0.0
  3
TB6
  1

  0
MTEXT
  5
20E
330
20D
100
AcDbEntity
  8
寸法線
  6
Continuous
100
AcDbMText
 10
917.3216494432054
 20
235.349302881973
 30
0.0
 40
20.0
 41
17.2146
 71
     7
 72
     1
  1

 73
     1
 44
1.0
1001
ACAD
1000
MTEXTBEGIN
1070
    73
1070
     1
1070
    44
1040
1.0
1070
    74
1070
     0
1000
MTEXTEND
  0
LINE
  5
20F
330
20D
100
AcDbEntity
  8
本体
  6
CENTER
 62
     1
 48
0.3
100
AcDbLine
 10
9.0
 20
0.0
 30
0.0
 11
-3.0
 21
0.0
 31
0.0
  0
LINE
  5
211
330
20D
100
AcDbEntity
  8
本体
  6
CENTER
 62
     1
 48
0.3
100
AcDbLine
 10
3.0
 20
6.0
 30
0.0
 11
3.0
 21
-6.0
 31
0.0
  0
CIRCLE
  5
212
330
20D
100
AcDbEntity
  8
本体
  6
Continuous
 62
     0
100
AcDbCircle
 10
3.0
 20
0.0
 30
0.0
 40
3.0
  0
ENDBLK
  5
214
330
20D
100
AcDbEntity
  8
0
100
AcDbBlockEnd
  0
BLOCK
  5
26A
330
262
100
AcDbEntity
  8
0
100
AcDbBlockBegin
  2
A$C61D83440
 70
     0
 10
0.0
 20
0.0
 30
0.0
  3
A$C61D83440
  1

  0
LINE
  5
263
330
262
100
AcDbEntity
  8
0
  6
Continuous
100
AcDbLine
 10
0.0
 20
-31.49999999999977
 30
0.0
 11
5.0
 21
-29.49999999999977
 31
0.0
  0
LINE
  5
264
330
262
100
AcDbEntity
  8
0
  6
Continuous
100
AcDbLine
 10
5.0
 20
-36.49999999999977
 30
0.0
 11
0.0
 21
-34.49999999999977
 31
0.0
  0
LINE
  5
265
330
262
100
AcDbEntity
  8
0
  6
Continuous
100
AcDbLine
 10
0.0
 20
-3.499999999999771
 30
0.0
 11
5.0
 21
-1.499999999999771
 31
0.0
  0
LINE
  5
266
330
262
100
AcDbEntity
  8
0
  6
Continuous
100
AcDbLine
 10
5.0
 20
-8.499999999999772
 30
0.0
 11
0.0
 21
-6.499999999999772
 31
0.0
  0
LINE
  5
267
330
262
100
AcDbEntity
  8
0
  6
Continuous
100
AcDbLine
 10
0.0
 20
-15.49999999999977
 30
0.0
 11
5.0
 21
-17.49999999999977
 31
0.0
  0
LINE
  5
268
330
262
100
AcDbEntity
  8
0
  6
Continuous
100
AcDbLine
 10
5.0
 20
-20.49999999999977
 30
0.0
 11
0.0
 21
-22.49999999999977
 31
0.0
  0
LINE
  5
269
330
262
100
AcDbEntity
  8
0
  6
Continuous
100
AcDbLine
 10
0.0
 20
-43.49999999999977
 30
0.0
 11
5.0
 21
-45.49999999999977
 31
0.0
  0
ENDBLK
  5
26B
330
262
100
AcDbEntity
  8
0
100
AcDbBlockEnd
  0
BLOCK
  5
104
330
FA
100
AcDbEntity
  8
0
 48
3.0
100
AcDbBlockBegin
  2
*D8
 70
     1
 10
0.0
 20
0.0
 30
0.0
  3
*D8
  1

  0
LINE
  5
4D12
330
FA
100
AcDbEntity
  8
寸法線
  6
Continuous
 62
     0
370
    -2
100
AcDbLine
 10
2218.714850642466
 20
1493.654661667708
 30
0.0
 11
2218.714850642466
 21
1568.658331716341
 31
0.0
  0
LINE
  5
4D13
330
FA
100
AcDbEntity
  8
寸法線
  6
Continuous
 62
     0
370
    -2
100
AcDbLine
 10
2118.714850642466
 20
1493.654661667708
 30
0.0
 11
2118.714850642466
 21
1568.658331716341
 31
0.0
  0
LINE
  5
4D14
330
FA
100
AcDbEntity
  8
寸法線
  6
Continuous
 62
     0
370
    -2
100
AcDbLine
 10
2203.714850642466
 20
1553.658331716341
 30
0.0
 11
2133.714850642466
 21
1553.658331716341
 31
0.0
  0
INSERT
  5
4D15
330
FA
100
AcDbEntity
  8
寸法線
  6
Continuous
 62
     0
370
    -2
100
AcDbBlockReference
  2
_Open30
 10
2218.714850642466
 20
1553.658331716341
 30
0.0
 41
15.0
 42
15.0
 43
15.0
  0
INSERT
  5
4D16
330
FA
100
AcDbEntity
  8
寸法線
  6
Continuous
 62
     0
370
    -2
100
AcDbBlockReference
  2
_Open30
 10
2118.714850642466
 20
1553.658331716341
 30
0.0
 41
15.0
 42
15.0
 43
15.0
 50
180.0
  0
MTEXT
  5
4D17
330
FA
100
AcDbEntity
  8
寸法線
  6
Continuous
 62
     0
100
AcDbMText
 10
2168.714850642466
 20
1573.658331716341
 30
0.0
 40
30.0
 41
0.0
 71
     5
 72
     1
  1
100
 73
     1
 44
1.0
1001
ACAD
1000
MTEXTBEGIN
1070
    73
1070
     1
1070
    44
1040
1.0
1070
    74
1070
     0
1000
MTEXTEND
  0
POINT
  5
4D18
330
FA
100
AcDbEntity
  8
Defpoints
  6
Continuous
 62
     0
100
AcDbPoint
 10
2218.714850642466
 20
1473.654661667708
 30
0.0
  0
POINT
  5
4D19
330
FA
100
AcDbEntity
  8
Defpoints
  6
Continuous
 62
     0
100
AcDbPoint
 10
2118.714850642466
 20
1473.654661667708
 30
0.0
  0
POINT
  5
4D1A
330
FA
100
AcDbEntity
  8
Defpoints
  6
Continuous
 62
     0
100
AcDbPoint
 10
2118.714850642466
 20
1553.658331716341
 30
0.0
  0
ENDBLK
  5
105
330
FA
100
AcDbEntity
  8
0
 48
3.0
100
AcDbBlockEnd
  0
BLOCK
  5
111
330
107
100
AcDbEntity
  8
0
 48
3.0
100
AcDbBlockBegin
  2
*D9
 70
     1
 10
0.0
 20
0.0
 30
0.0
  3
*D9
  1

  0
LINE
  5
4D1B
330
107
100
AcDbEntity
  8
寸法線
  6
Continuous
 62
     0
370
    -2
100
AcDbLine
 10
2278.714850642466
 20
1493.654661667708
 30
0.0
 11
2278.714850642466
 21
1648.662083599688
 31
0.0
  0
LINE
  5
4D1C
330
107
100
AcDbEntity
  8
寸法線
  6
Continuous
 62
     0
370
    -2
100
AcDbLine
 10
1658.714850642466
 20
1493.654661667708
 30
0.0
 11
1658.714850642466
 21
1648.662083599688
 31
0.0
  0
LINE
  5
4D1D
330
107
100
AcDbEntity
  8
寸法線
  6
Continuous
 62
     0
370
    -2
100
AcDbLine
 10
2263.714850642466
 20
1633.662083599688
 30
0.0
 11
1673.714850642465
 21
1633.662083599688
 31
0.0
  0
INSERT
  5
4D1E
330
107
100
AcDbEntity
  8
寸法線
  6
Continuous
 62
     0
370
    -2
100
AcDbBlockReference
  2
_Open30
 10
2278.714850642466
 20
1633.662083599688
 30
0.0
 41
15.0
 42
15.0
 43
15.0
  0
INSERT
  5
4D1F
330
107
100
AcDbEntity
  8
寸法線
  6
Continuous
 62
     0
370
    -2
100
AcDbBlockReference
  2
_Open30
 10
1658.714850642466
 20
1633.662083599688
 30
0.0
 41
15.0
 42
15.0
 43
15.0
 50
180.0
  0
MTEXT
  5
4D20
330
107
100
AcDbEntity
  8
寸法線
  6
Continuous
 62
     0
100
AcDbMText
 10
1968.714850642465
 20
1653.662083599688
 30
0.0
 40
30.0
 41
0.0
 71
     5
 72
     1
  1
620
 73
     1
 44
1.0
1001
ACAD
1000
MTEXTBEGIN
1070
    73
1070
     1
1070
    44
1040
1.0
1070
    74
1070
     0
1000
MTEXTEND
  0
POINT
  5
4D21
330
107
100
AcDbEntity
  8
Defpoints
  6
Continuous
 62
     0
100
AcDbPoint
 10
2278.714850642466
 20
1473.654661667708
 30
0.0
  0
POINT
  5
4D22
330
107
100
AcDbEntity
  8
Defpoints
  6
Continuous
 62
     0
100
AcDbPoint
 10
1658.714850642466
 20
1473.654661667708
 30
0.0
  0
POINT
  5
4D23
330
107
100
AcDbEntity
  8
Defpoints
  6
Continuous
 62
     0
100
AcDbPoint
 10
1658.714850642466
 20
1633.662083599688
 30
0.0
  0
ENDBLK
  5
112
330
107
100
AcDbEntity
  8
0
 48
3.0
100
AcDbBlockEnd
  0
BLOCK
  5
C93
330
C0F
100
AcDbEntity
  8
0
 48
3.0
100
AcDbBlockBegin
  2
HGIB詳細
 70
     0
 10
0.0
 20
0.0
 30
0.0
  3
HGIB詳細
  1

  0
MTEXT
  5
C10
330
C0F
100
AcDbEntity
  8
寸法線
  6
Continuous
100
AcDbMText
 10
917.3216494432054
 20
235.349302881973
 30
0.0
 40
20.0
 41
17.2146
 71
     7
 72
     1
  1

 73
     1
 44
1.0
1001
ACAD
1000
MTEXTBEGIN
1070
    73
1070
     1
1070
    44
1040
1.0
1070
    74
1070
     0
1000
MTEXTEND
  0
MTEXT
  5
C11
330
C0F
100
AcDbEntity
  8
寸法線
  6
Continuous
100
AcDbMText
 10
1190.40747444238
 20
2236.853038095159
 30
0.0
 40
30.0
 41
17.2146
 71
     7
 72
     1
  1

 73
     1
 44
1.0
1001
ACAD
1000
MTEXTBEGIN
1070
    73
1070
     1
1070
    44
1040
1.0
1070
    74
1070
     0
1000
MTEXTEND
  0
MTEXT
  5
C12
330
C0F
100
AcDbEntity
  8
寸法線
  6
Continuous
100
AcDbMText
 10
1803.670061800466
 20
2319.243278892013
 30
0.0
 40
20.0
 41
17.2146
 71
     7
 72
     1
  1

 73
     1
 44
1.0
1001
ACAD
1000
MTEXTBEGIN
1070
    73
1070
     1
1070
    44
1040
1.0
1070
    74
1070
     0
1000
MTEXTEND
  0
MTEXT
  5
C13
330
C0F
100
AcDbEntity
  8
寸法線
  6
Continuous
100
AcDbMText
 10
2544.970061800466
 20
2319.243278892013
 30
0.0
 40
20.0
 41
17.2146
 71
     7
 72
     1
  1

 73
     1
 44
1.0
1001
ACAD
1000
MTEXTBEGIN
1070
    73
1070
     1
1070
    44
1040
1.0
1070
    74
1070
     0
1000
MTEXTEND
  0
MTEXT
  5
C14
330
C0F
100
AcDbEntity
  8
寸法線
  6
Continuous
100
AcDbMText
 10
917.3216494432054
 20
235.349302881973
 30
0.0
 40
20.0
 41
17.2146
 71
     7
 72
     1
  1

 73
     1
 44
1.0
1001
ACAD
1000
MTEXTBEGIN
1070
    73
1070
     1
1070
    44
1040
1.0
1070
    74
1070
     0
1000
MTEXTEND
  0
MTEXT
  5
C15
330
C0F
100
AcDbEntity
  8
寸法線
  6
Continuous
100
AcDbMText
 10
3115.620061800466
 20
3254.243286892013
 30
0.0
 40
20.0
 41
17.2146
 71
     7
 72
     1
  1

 73
     1
 44
1.0
1001
ACAD
1000
MTEXTBEGIN
1070
    73
1070
     1
1070
    44
1040
1.0
1070
    74
1070
     0
1000
MTEXTEND
  0
MTEXT
  5
C16
330
C0F
100
AcDbEntity
  8
寸法線
  6
Continuous
100
AcDbMText
 10
4075.4686838811
 20
292.0312092662889
 30
0.0
 40
20.0
 41
17.2146
 71
     7
 72
     1
  1

 73
     1
 44
1.0
1001
ACAD
1000
MTEXTBEGIN
1070
    73
1070
     1
1070
    44
1040
1.0
1070
    74
1070
     0
1000
MTEXTEND
  0
MTEXT
  5
C17
330
C0F
100
AcDbEntity
  8
0
100
AcDbMText
 10
5485.897031918579
 20
716.2461951050262
 30
0.0
 40
25.0
 41
224.7356
 71
     1
 72
     5
  1

 73
     1
 44
1.0
1001
ACAD
1000
MTEXTBEGIN
1070
    73
1070
     1
1070
    44
1040
1.0
1070
    74
1070
     0
1000
MTEXTEND
  0
MTEXT
  5
C18
330
C0F
100
AcDbEntity
  8
0
100
AcDbMText
 10
5861.377520267437
 20
581.1352060686295
 30
0.0
 40
28.0
 41
603.8372
 71
     1
 72
     5
  1

 73
     1
 44
1.0
1001
ACAD
1000
MTEXTBEGIN
1070
    73
1070
     1
1070
    44
1040
1.0
1070
    74
1070
     0
1000
MTEXTEND
  0
MTEXT
  5
C19
330
C0F
100
AcDbEntity
  8
寸法線
  6
Continuous
100
AcDbMText
 10
6229.3046753595
 20
2124.022890384795
 30
0.0
 40
20.0
 41
17.2146
 71
     7
 72
     1
  1

 73
     1
 44
1.0
1001
ACAD
1000
MTEXTBEGIN
1070
    73
1070
     1
1070
    44
1040
1.0
1070
    74
1070
     0
1000
MTEXTEND
  0
MTEXT
  5
C1A
330
C0F
100
AcDbEntity
  8
寸法線
  6
Continuous
100
AcDbMText
 10
6229.3046753595
 20
2224.022890384794
 30
0.0
 40
20.0
 41
17.2146
 71
     7
 72
     1
  1

 73
     1
 44
1.0
1001
ACAD
1000
MTEXTBEGIN
1070
    73
1070
     1
1070
    44
1040
1.0
1070
    74
1070
     0
1000
MTEXTEND
  0
MTEXT
  5
C1B
330
C0F
100
AcDbEntity
  8
寸法線
  6
Continuous
100
AcDbMText
 10
6229.3046753595
 20
2324.022890384795
 30
0.0
 40
20.0
 41
17.2146
 71
     7
 72
     1
  1

 73
     1
 44
1.0
1001
ACAD
1000
MTEXTBEGIN
1070
    73
1070
     1
1070
    44
1040
1.0
1070
    74
1070
     0
1000
MTEXTEND
  0
MTEXT
  5
C1C
330
C0F
100
AcDbEntity
  8
寸法線
  6
Continuous
100
AcDbMText
 10
6229.3046753595
 20
2424.022890384796
 30
0.0
 40
20.0
 41
17.2146
 71
     7
 72
     1
  1

 73
     1
 44
1.0
1001
ACAD
1000
MTEXTBEGIN
1070
    73
1070
     1
1070
    44
1040
1.0
1070
    74
1070
     0
1000
MTEXTEND
  0
MTEXT
  5
C1D
330
C0F
100
AcDbEntity
  8
寸法線
  6
Continuous
100
AcDbMText
 10
2814.888107175875
 20
1906.577186178131
 30
0.0
 40
20.0
 41
17.2146
 71
     7
 72
     1
  1

 73
     1
 44
1.0
1001
ACAD
1000
MTEXTBEGIN
1070
    73
1070
     1
1070
    44
1040
1.0
1070
    74
1070
     0
1000
MTEXTEND
  0
MTEXT
  5
C1E
330
C0F
100
AcDbEntity
  8
寸法線
  6
Continuous
100
AcDbMText
 10
3087.973932175049
 20
3908.080921391317
 30
0.0
 40
30.0
 41
17.2146
 71
     7
 72
     1
  1

 73
     1
 44
1.0
1001
ACAD
1000
MTEXTBEGIN
1070
    73
1070
     1
1070
    44
1040
1.0
1070
    74
1070
     0
1000
MTEXTEND
  0
MTEXT
  5
C1F
330
C0F
100
AcDbEntity
  8
寸法線
  6
Continuous
100
AcDbMText
 10
3701.236519533135
 20
3990.471162188171
 30
0.0
 40
20.0
 41
17.2146
 71
     7
 72
     1
  1

 73
     1
 44
1.0
1001
ACAD
1000
MTEXTBEGIN
1070
    73
1070
     1
1070
    44
1040
1.0
1070
    74
1070
     0
1000
MTEXTEND
  0
MTEXT
  5
C20
330
C0F
100
AcDbEntity
  8
寸法線
  6
Continuous
100
AcDbMText
 10
4442.536519533134
 20
3990.471162188173
 30
0.0
 40
20.0
 41
17.2146
 71
     7
 72
     1
  1

 73
     1
 44
1.0
1001
ACAD
1000
MTEXTBEGIN
1070
    73
1070
     1
1070
    44
1040
1.0
1070
    74
1070
     0
1000
MTEXTEND
  0
MTEXT
  5
C21
330
C0F
100
AcDbEntity
  8
寸法線
  6
Continuous
100
AcDbMText
 10
2814.888107175875
 20
1906.577186178131
 30
0.0
 40
20.0
 41
17.2146
 71
     7
 72
     1
  1

 73
     1
 44
1.0
1001
ACAD
1000
MTEXTBEGIN
1070
    73
1070
     1
1070
    44
1040
1.0
1070
    74
1070
     0
1000
MTEXTEND
  0
MTEXT
  5
C22
330
C0F
100
AcDbEntity
  8
寸法線
  6
Continuous
100
AcDbMText
 10
5013.186519533135
 20
4925.471170188171
 30
0.0
 40
20.0
 41
17.2146
 71
     7
 72
     1
  1

 73
     1
 44
1.0
1001
ACAD
1000
MTEXTBEGIN
1070
    73
1070
     1
1070
    44
1040
1.0
1070
    74
1070
     0
1000
MTEXTEND
  0
MTEXT
  5
C23
330
C0F
100
AcDbEntity
  8
寸法線
  6
Continuous
100
AcDbMText
 10
2802.888107175875
 20
1825.587548799223
 30
0.0
 40
20.0
 41
17.2146
 71
     7
 72
     1
  1

 73
     1
 44
1.0
1001
ACAD
1000
MTEXTBEGIN
1070
    73
1070
     1
1070
    44
1040
1.0
1070
    74
1070
     0
1000
MTEXTEND
  0
MTEXT
  5
C24
330
C0F
100
AcDbEntity
  8
寸法線
  6
Continuous
100
AcDbMText
 10
3075.973932175049
 20
3827.091284012409
 30
0.0
 40
30.0
 41
17.2146
 71
     7
 72
     1
  1

 73
     1
 44
1.0
1001
ACAD
1000
MTEXTBEGIN
1070
    73
1070
     1
1070
    44
1040
1.0
1070
    74
1070
     0
1000
MTEXTEND
  0
MTEXT
  5
C25
330
C0F
100
AcDbEntity
  8
寸法線
  6
Continuous
100
AcDbMText
 10
3689.236519533135
 20
3909.481524809263
 30
0.0
 40
20.0
 41
17.2146
 71
     7
 72
     1
  1

 73
     1
 44
1.0
1001
ACAD
1000
MTEXTBEGIN
1070
    73
1070
     1
1070
    44
1040
1.0
1070
    74
1070
     0
1000
MTEXTEND
  0
MTEXT
  5
C26
330
C0F
100
AcDbEntity
  8
寸法線
  6
Continuous
100
AcDbMText
 10
4430.536519533133
 20
3909.481524809264
 30
0.0
 40
20.0
 41
17.2146
 71
     7
 72
     1
  1

 73
     1
 44
1.0
1001
ACAD
1000
MTEXTBEGIN
1070
    73
1070
     1
1070
    44
1040
1.0
1070
    74
1070
     0
1000
MTEXTEND
  0
MTEXT
  5
C27
330
C0F
100
AcDbEntity
  8
寸法線
  6
Continuous
100
AcDbMText
 10
2802.888107175875
 20
1825.587548799223
 30
0.0
 40
20.0
 41
17.2146
 71
     7
 72
     1
  1

 73
     1
 44
1.0
1001
ACAD
1000
MTEXTBEGIN
1070
    73
1070
     1
1070
    44
1040
1.0
1070
    74
1070
     0
1000
MTEXTEND
  0
MTEXT
  5
C28
330
C0F
100
AcDbEntity
  8
寸法線
  6
Continuous
100
AcDbMText
 10
5001.186519533135
 20
4844.481532809263
 30
0.0
 40
20.0
 41
17.2146
 71
     7
 72
     1
  1

 73
     1
 44
1.0
1001
ACAD
1000
MTEXTBEGIN
1070
    73
1070
     1
1070
    44
1040
1.0
1070
    74
1070
     0
1000
MTEXTEND
  0
MTEXT
  5
C29
330
C0F
100
AcDbEntity
  8
寸法線
  6
Continuous
100
AcDbMText
 10
1927.2729564133
 20
318.0489392923714
 30
0.0
 40
20.0
 41
17.2146
 71
     7
 72
     1
  1

 73
     1
 44
1.0
1001
ACAD
1000
MTEXTBEGIN
1070
    73
1070
     1
1070
    44
1040
1.0
1070
    74
1070
     0
1000
MTEXTEND
  0
MTEXT
  5
C2A
330
C0F
100
AcDbEntity
  8
寸法線
  6
Continuous
100
AcDbMText
 10
2200.358781412475
 20
2319.552674505557
 30
0.0
 40
30.0
 41
17.2146
 71
     7
 72
     1
  1

 73
     1
 44
1.0
1001
ACAD
1000
MTEXTBEGIN
1070
    73
1070
     1
1070
    44
1040
1.0
1070
    74
1070
     0
1000
MTEXTEND
  0
MTEXT
  5
C2B
330
C0F
100
AcDbEntity
  8
寸法線
  6
Continuous
100
AcDbMText
 10
2813.621368770562
 20
2401.942915302412
 30
0.0
 40
20.0
 41
17.2146
 71
     7
 72
     1
  1

 73
     1
 44
1.0
1001
ACAD
1000
MTEXTBEGIN
1070
    73
1070
     1
1070
    44
1040
1.0
1070
    74
1070
     0
1000
MTEXTEND
  0
MTEXT
  5
C2C
330
C0F
100
AcDbEntity
  8
寸法線
  6
Continuous
100
AcDbMText
 10
3554.921368770561
 20
2401.942915302412
 30
0.0
 40
20.0
 41
17.2146
 71
     7
 72
     1
  1

 73
     1
 44
1.0
1001
ACAD
1000
MTEXTBEGIN
1070
    73
1070
     1
1070
    44
1040
1.0
1070
    74
1070
     0
1000
MTEXTEND
  0
MTEXT
  5
C2D
330
C0F
100
AcDbEntity
  8
寸法線
  6
Continuous
100
AcDbMText
 10
1927.2729564133
 20
318.0489392923714
 30
0.0
 40
20.0
 41
17.2146
 71
     7
 72
     1
  1

 73
     1
 44
1.0
1001
ACAD
1000
MTEXTBEGIN
1070
    73
1070
     1
1070
    44
1040
1.0
1070
    74
1070
     0
1000
MTEXTEND
  0
MTEXT
  5
C2E
330
C0F
100
AcDbEntity
  8
寸法線
  6
Continuous
100
AcDbMText
 10
4125.571368770561
 20
3336.942923302411
 30
0.0
 40
20.0
 41
17.2146
 71
     7
 72
     1
  1

 73
     1
 44
1.0
1001
ACAD
1000
MTEXTBEGIN
1070
    73
1070
     1
1070
    44
1040
1.0
1070
    74
1070
     0
1000
MTEXTEND
  0
MTEXT
  5
C2F
330
C0F
100
AcDbEntity
  8
寸法線
  6
Continuous
100
AcDbMText
 10
4634.965096649461
 20
-1575.4058149508
 30
0.0
 40
20.0
 41
17.2146
 71
     7
 72
     1
  1

 73
     1
 44
1.0
1001
ACAD
1000
MTEXTBEGIN
1070
    73
1070
     1
1070
    44
1040
1.0
1070
    74
1070
     0
1000
MTEXTEND
  0
MTEXT
  5
C30
330
C0F
100
AcDbEntity
  8
寸法線
  6
Continuous
100
AcDbMText
 10
4908.050921648637
 20
426.0979202623857
 30
0.0
 40
30.0
 41
17.2146
 71
     7
 72
     1
  1

 73
     1
 44
1.0
1001
ACAD
1000
MTEXTBEGIN
1070
    73
1070
     1
1070
    44
1040
1.0
1070
    74
1070
     0
1000
MTEXTEND
  0
MTEXT
  5
C31
330
C0F
100
AcDbEntity
  8
寸法線
  6
Continuous
100
AcDbMText
 10
5521.313509006724
 20
508.4881610592396
 30
0.0
 40
20.0
 41
17.2146
 71
     7
 72
     1
  1

 73
     1
 44
1.0
1001
ACAD
1000
MTEXTBEGIN
1070
    73
1070
     1
1070
    44
1040
1.0
1070
    74
1070
     0
1000
MTEXTEND
  0
MTEXT
  5
C32
330
C0F
100
AcDbEntity
  8
寸法線
  6
Continuous
100
AcDbMText
 10
6262.613509006722
 20
508.48816105924
 30
0.0
 40
20.0
 41
17.2146
 71
     7
 72
     1
  1

 73
     1
 44
1.0
1001
ACAD
1000
MTEXTBEGIN
1070
    73
1070
     1
1070
    44
1040
1.0
1070
    74
1070
     0
1000
MTEXTEND
  0
MTEXT
  5
C33
330
C0F
100
AcDbEntity
  8
寸法線
  6
Continuous
100
AcDbMText
 10
4634.965096649461
 20
-1575.4058149508
 30
0.0
 40
20.0
 41
17.2146
 71
     7
 72
     1
  1

 73
     1
 44
1.0
1001
ACAD
1000
MTEXTBEGIN
1070
    73
1070
     1
1070
    44
1040
1.0
1070
    74
1070
     0
1000
MTEXTEND
  0
MTEXT
  5
C34
330
C0F
100
AcDbEntity
  8
寸法線
  6
Continuous
100
AcDbMText
 10
6833.263509006723
 20
1443.48816905924
 30
0.0
 40
20.0
 41
17.2146
 71
     7
 72
     1
  1

 73
     1
 44
1.0
1001
ACAD
1000
MTEXTBEGIN
1070
    73
1070
     1
1070
    44
1040
1.0
1070
    74
1070
     0
1000
MTEXTEND
  0
MTEXT
  5
C35
330
C0F
100
AcDbEntity
  8
寸法線
  6
Continuous
100
AcDbMText
 10
5394.263509006723
 20
558.4881610592397
 30
0.0
 40
20.0
 41
17.2146
 71
     7
 72
     1
  1

 73
     1
 44
1.0
1001
ACAD
1000
MTEXTBEGIN
1070
    73
1070
     1
1070
    44
1040
1.0
1070
    74
1070
     0
1000
MTEXTEND
  0
MTEXT
  5
C36
330
C0F
100
AcDbEntity
  8
寸法線
  6
Continuous
100
AcDbMText
 10
3387.833324747969
 20
844.2748908496508
 30
0.0
 40
20.0
 41
17.2146
 71
     7
 72
     1
  1

 11
-1.0
 21
0.0000000000000001
 31
0.0
 73
     1
 44
1.0
1001
ACAD
1000
MTEXTBEGIN
1070
    73
1070
     1
1070
    44
1040
1.0
1070
    74
1070
     0
1000
MTEXTEND
  0
MTEXT
  5
C37
330
C0F
100
AcDbEntity
  8
寸法線
  6
Continuous
100
AcDbMText
 10
3424.118784681946
 20
1691.572689545658
 30
0.0
 40
20.0
 41
17.2146
 71
     7
 72
     1
  1

 73
     1
 44
1.0
1001
ACAD
1000
MTEXTBEGIN
1070
    73
1070
     1
1070
    44
1040
1.0
1070
    74
1070
     0
1000
MTEXTEND
  0
MTEXT
  5
C38
330
C0F
100
AcDbEntity
  8
寸法線
  6
Continuous
100
AcDbMText
 10
3697.204609681121
 20
3693.076424758845
 30
0.0
 40
30.0
 41
17.2146
 71
     7
 72
     1
  1

 73
     1
 44
1.0
1001
ACAD
1000
MTEXTBEGIN
1070
    73
1070
     1
1070
    44
1040
1.0
1070
    74
1070
     0
1000
MTEXTEND
  0
MTEXT
  5
C39
330
C0F
100
AcDbEntity
  8
寸法線
  6
Continuous
100
AcDbMText
 10
4310.467197039208
 20
3775.466665555697
 30
0.0
 40
20.0
 41
17.2146
 71
     7
 72
     1
  1

 73
     1
 44
1.0
1001
ACAD
1000
MTEXTBEGIN
1070
    73
1070
     1
1070
    44
1040
1.0
1070
    74
1070
     0
1000
MTEXTEND
  0
MTEXT
  5
C3A
330
C0F
100
AcDbEntity
  8
寸法線
  6
Continuous
100
AcDbMText
 10
5051.767197039207
 20
3775.466665555699
 30
0.0
 40
20.0
 41
17.2146
 71
     7
 72
     1
  1

 73
     1
 44
1.0
1001
ACAD
1000
MTEXTBEGIN
1070
    73
1070
     1
1070
    44
1040
1.0
1070
    74
1070
     0
1000
MTEXTEND
  0
MTEXT
  5
C3B
330
C0F
100
AcDbEntity
  8
寸法線
  6
Continuous
100
AcDbMText
 10
3424.118784681946
 20
1691.572689545658
 30
0.0
 40
20.0
 41
17.2146
 71
     7
 72
     1
  1

 73
     1
 44
1.0
1001
ACAD
1000
MTEXTBEGIN
1070
    73
1070
     1
1070
    44
1040
1.0
1070
    74
1070
     0
1000
MTEXTEND
  0
MTEXT
  5
C3C
330
C0F
100
AcDbEntity
  8
寸法線
  6
Continuous
100
AcDbMText
 10
5622.417197039206
 20
4710.466673555695
 30
0.0
 40
20.0
 41
17.2146
 71
     7
 72
     1
  1

 73
     1
 44
1.0
1001
ACAD
1000
MTEXTBEGIN
1070
    73
1070
     1
1070
    44
1040
1.0
1070
    74
1070
     0
1000
MTEXTEND
  0
MTEXT
  5
C3D
330
C0F
100
AcDbEntity
  8
寸法線
  6
Continuous
100
AcDbMText
 10
4760.659681197019
 20
727.546027624079
 30
0.0
 40
16.0
 41
13.77168
 71
     7
 72
     1
  1

 11
-1.0
 21
0.0000000000000001
 31
0.0
 73
     1
 44
1.0
1001
ACAD
1000
MTEXTBEGIN
1070
    73
1070
     1
1070
    44
1040
1.0
1070
    74
1070
     0
1000
MTEXTEND
  0
MTEXT
  5
C3E
330
C0F
100
AcDbEntity
  8
寸法線
  6
Continuous
100
AcDbMText
 10
4542.191021197679
 20
-873.6569605464696
 30
0.0
 40
24.0
 41
13.77168
 71
     7
 72
     1
  1

 11
-1.0
 21
0.0000000000000001
 31
0.0
 73
     1
 44
1.0
1001
ACAD
1000
MTEXTBEGIN
1070
    73
1070
     1
1070
    44
1040
1.0
1070
    74
1070
     0
1000
MTEXTEND
  0
MTEXT
  5
C3F
330
C0F
100
AcDbEntity
  8
寸法線
  6
Continuous
100
AcDbMText
 10
4051.580951311211
 20
-939.5691531839528
 30
0.0
 40
16.0
 41
13.77168
 71
     7
 72
     1
  1

 11
-1.0
 21
0.0000000000000001
 31
0.0
 73
     1
 44
1.0
1001
ACAD
1000
MTEXTBEGIN
1070
    73
1070
     1
1070
    44
1040
1.0
1070
    74
1070
     0
1000
MTEXTEND
  0
MTEXT
  5
C40
330
C0F
100
AcDbEntity
  8
寸法線
  6
Continuous
100
AcDbMText
 10
3458.540951311211
 20
-939.5691531839528
 30
0.0
 40
16.0
 41
13.77168
 71
     7
 72
     1
  1

 11
-1.0
 21
0.0000000000000001
 31
0.0
 73
     1
 44
1.0
1001
ACAD
1000
MTEXTBEGIN
1070
    73
1070
     1
1070
    44
1040
1.0
1070
    74
1070
     0
1000
MTEXTEND
  0
MTEXT
  5
C41
330
C0F
100
AcDbEntity
  8
寸法線
  6
Continuous
100
AcDbMText
 10
4760.659681197019
 20
727.546027624079
 30
0.0
 40
16.0
 41
13.77168
 71
     7
 72
     1
  1

 11
-1.0
 21
0.0000000000000001
 31
0.0
 73
     1
 44
1.0
1001
ACAD
1000
MTEXTBEGIN
1070
    73
1070
     1
1070
    44
1040
1.0
1070
    74
1070
     0
1000
MTEXTEND
  0
MTEXT
  5
C42
330
C0F
100
AcDbEntity
  8
寸法線
  6
Continuous
100
AcDbMText
 10
3002.020951311211
 20
-1687.569159583953
 30
0.0
 40
16.0
 41
13.77168
 71
     7
 72
     1
  1

 11
-1.0
 21
0.0000000000000001
 31
0.0
 73
     1
 44
1.0
1001
ACAD
1000
MTEXTBEGIN
1070
    73
1070
     1
1070
    44
1040
1.0
1070
    74
1070
     0
1000
MTEXTEND
  0
MTEXT
  5
C43
330
C0F
100
AcDbEntity
  8
寸法線
  6
Continuous
100
AcDbMText
 10
3428.139271165147
 20
86.54996384325166
 30
0.0
 40
16.0
 41
13.77168
 71
     7
 72
     1
  1

 11
-1.0
 21
0.0000000000000001
 31
0.0
 73
     1
 44
1.0
1001
ACAD
1000
MTEXTBEGIN
1070
    73
1070
     1
1070
    44
1040
1.0
1070
    74
1070
     0
1000
MTEXTEND
  0
MTEXT
  5
C44
330
C0F
100
AcDbEntity
  8
寸法線
  6
Continuous
100
AcDbMText
 10
3209.670611165808
 20
-1514.653024327297
 30
0.0
 40
24.0
 41
13.77168
 71
     7
 72
     1
  1

 11
-1.0
 21
0.0000000000000001
 31
0.0
 73
     1
 44
1.0
1001
ACAD
1000
MTEXTBEGIN
1070
    73
1070
     1
1070
    44
1040
1.0
1070
    74
1070
     0
1000
MTEXTEND
  0
MTEXT
  5
C45
330
C0F
100
AcDbEntity
  8
寸法線
  6
Continuous
100
AcDbMText
 10
2719.060541279338
 20
-1580.56521696478
 30
0.0
 40
16.0
 41
13.77168
 71
     7
 72
     1
  1

 11
-1.0
 21
0.0000000000000001
 31
0.0
 73
     1
 44
1.0
1001
ACAD
1000
MTEXTBEGIN
1070
    73
1070
     1
1070
    44
1040
1.0
1070
    74
1070
     0
1000
MTEXTEND
  0
MTEXT
  5
C46
330
C0F
100
AcDbEntity
  8
寸法線
  6
Continuous
100
AcDbMText
 10
2126.020541279339
 20
-1580.56521696478
 30
0.0
 40
16.0
 41
13.77168
 71
     7
 72
     1
  1

 11
-1.0
 21
0.0000000000000001
 31
0.0
 73
     1
 44
1.0
1001
ACAD
1000
MTEXTBEGIN
1070
    73
1070
     1
1070
    44
1040
1.0
1070
    74
1070
     0
1000
MTEXTEND
  0
MTEXT
  5
C47
330
C0F
100
AcDbEntity
  8
寸法線
  6
Continuous
100
AcDbMText
 10
3428.139271165147
 20
86.54996384325166
 30
0.0
 40
16.0
 41
13.77168
 71
     7
 72
     1
  1

 11
-1.0
 21
0.0000000000000001
 31
0.0
 73
     1
 44
1.0
1001
ACAD
1000
MTEXTBEGIN
1070
    73
1070
     1
1070
    44
1040
1.0
1070
    74
1070
     0
1000
MTEXTEND
  0
MTEXT
  5
C48
330
C0F
100
AcDbEntity
  8
寸法線
  6
Continuous
100
AcDbMText
 10
1669.500541279338
 20
-2328.56522336478
 30
0.0
 40
16.0
 41
13.77168
 71
     7
 72
     1
  1

 11
-1.0
 21
0.0000000000000001
 31
0.0
 73
     1
 44
1.0
1001
ACAD
1000
MTEXTBEGIN
1070
    73
1070
     1
1070
    44
1040
1.0
1070
    74
1070
     0
1000
MTEXTEND
  0
MTEXT
  5
C49
330
C0F
100
AcDbEntity
  8
寸法線
  6
Continuous
100
AcDbMText
 10
4420.396138383735
 20
-1393.734845892645
 30
0.0
 40
20.0
 41
17.2146
 71
     7
 72
     1
  1

 73
     1
 44
1.0
1001
ACAD
1000
MTEXTBEGIN
1070
    73
1070
     1
1070
    44
1040
1.0
1070
    74
1070
     0
1000
MTEXTEND
  0
MTEXT
  5
C4A
330
C0F
100
AcDbEntity
  8
寸法線
  6
Continuous
100
AcDbMText
 10
4693.481963382911
 20
607.7688893205409
 30
0.0
 40
30.0
 41
17.2146
 71
     7
 72
     1
  1

 73
     1
 44
1.0
1001
ACAD
1000
MTEXTBEGIN
1070
    73
1070
     1
1070
    44
1040
1.0
1070
    74
1070
     0
1000
MTEXTEND
  0
MTEXT
  5
C4B
330
C0F
100
AcDbEntity
  8
寸法線
  6
Continuous
100
AcDbMText
 10
5306.744550740996
 20
690.1591301173947
 30
0.0
 40
20.0
 41
17.2146
 71
     7
 72
     1
  1

 73
     1
 44
1.0
1001
ACAD
1000
MTEXTBEGIN
1070
    73
1070
     1
1070
    44
1040
1.0
1070
    74
1070
     0
1000
MTEXTEND
  0
MTEXT
  5
C4C
330
C0F
100
AcDbEntity
  8
寸法線
  6
Continuous
100
AcDbMText
 10
6048.044550740996
 20
690.1591301173953
 30
0.0
 40
20.0
 41
17.2146
 71
     7
 72
     1
  1

 73
     1
 44
1.0
1001
ACAD
1000
MTEXTBEGIN
1070
    73
1070
     1
1070
    44
1040
1.0
1070
    74
1070
     0
1000
MTEXTEND
  0
MTEXT
  5
C4D
330
C0F
100
AcDbEntity
  8
寸法線
  6
Continuous
100
AcDbMText
 10
4420.396138383735
 20
-1393.734845892645
 30
0.0
 40
20.0
 41
17.2146
 71
     7
 72
     1
  1

 73
     1
 44
1.0
1001
ACAD
1000
MTEXTBEGIN
1070
    73
1070
     1
1070
    44
1040
1.0
1070
    74
1070
     0
1000
MTEXTEND
  0
MTEXT
  5
C4E
330
C0F
100
AcDbEntity
  8
寸法線
  6
Continuous
100
AcDbMText
 10
6618.694550740997
 20
1625.159138117395
 30
0.0
 40
20.0
 41
17.2146
 71
     7
 72
     1
  1

 73
     1
 44
1.0
1001
ACAD
1000
MTEXTBEGIN
1070
    73
1070
     1
1070
    44
1040
1.0
1070
    74
1070
     0
1000
MTEXTEND
  0
MTEXT
  5
C4F
330
C0F
100
AcDbEntity
  8
寸法線
  6
Continuous
100
AcDbMText
 10
3520.725852316764
 20
1651.885744746307
 30
0.0
 40
20.0
 41
17.2146
 71
     7
 72
     1
  1

 73
     1
 44
1.0
1001
ACAD
1000
MTEXTBEGIN
1070
    73
1070
     1
1070
    44
1040
1.0
1070
    74
1070
     0
1000
MTEXTEND
  0
MTEXT
  5
C50
330
C0F
100
AcDbEntity
  8
寸法線
  6
Continuous
100
AcDbMText
 10
3793.811677315938
 20
3653.389479959493
 30
0.0
 40
30.0
 41
17.2146
 71
     7
 72
     1
  1

 73
     1
 44
1.0
1001
ACAD
1000
MTEXTBEGIN
1070
    73
1070
     1
1070
    44
1040
1.0
1070
    74
1070
     0
1000
MTEXTEND
  0
MTEXT
  5
C51
330
C0F
100
AcDbEntity
  8
寸法線
  6
Continuous
100
AcDbMText
 10
4407.074264674025
 20
3735.779720756347
 30
0.0
 40
20.0
 41
17.2146
 71
     7
 72
     1
  1

 73
     1
 44
1.0
1001
ACAD
1000
MTEXTBEGIN
1070
    73
1070
     1
1070
    44
1040
1.0
1070
    74
1070
     0
1000
MTEXTEND
  0
MTEXT
  5
C52
330
C0F
100
AcDbEntity
  8
寸法線
  6
Continuous
100
AcDbMText
 10
5148.374264674026
 20
3735.779720756348
 30
0.0
 40
20.0
 41
17.2146
 71
     7
 72
     1
  1

 73
     1
 44
1.0
1001
ACAD
1000
MTEXTBEGIN
1070
    73
1070
     1
1070
    44
1040
1.0
1070
    74
1070
     0
1000
MTEXTEND
  0
MTEXT
  5
C53
330
C0F
100
AcDbEntity
  8
寸法線
  6
Continuous
100
AcDbMText
 10
3520.725852316764
 20
1651.885744746307
 30
0.0
 40
20.0
 41
17.2146
 71
     7
 72
     1
  1

 73
     1
 44
1.0
1001
ACAD
1000
MTEXTBEGIN
1070
    73
1070
     1
1070
    44
1040
1.0
1070
    74
1070
     0
1000
MTEXTEND
  0
MTEXT
  5
C54
330
C0F
100
AcDbEntity
  8
寸法線
  6
Continuous
100
AcDbMText
 10
5719.024264674025
 20
4670.779728756346
 30
0.0
 40
20.0
 41
17.2146
 71
     7
 72
     1
  1

 73
     1
 44
1.0
1001
ACAD
1000
MTEXTBEGIN
1070
    73
1070
     1
1070
    44
1040
1.0
1070
    74
1070
     0
1000
MTEXTEND
  0
MTEXT
  5
C55
330
C0F
100
AcDbEntity
  8
寸法線
  6
Continuous
100
AcDbMText
 10
3254.707561324073
 20
1950.20662955523
 30
0.0
 40
20.0
 41
17.2146
 71
     7
 72
     1
  1

 73
     1
 44
1.0
1001
ACAD
1000
MTEXTBEGIN
1070
    73
1070
     1
1070
    44
1040
1.0
1070
    74
1070
     0
1000
MTEXTEND
  0
MTEXT
  5
C56
330
C0F
100
AcDbEntity
  8
寸法線
  6
Continuous
100
AcDbMText
 10
3527.793386323247
 20
3951.710364768416
 30
0.0
 40
30.0
 41
17.2146
 71
     7
 72
     1
  1

 73
     1
 44
1.0
1001
ACAD
1000
MTEXTBEGIN
1070
    73
1070
     1
1070
    44
1040
1.0
1070
    74
1070
     0
1000
MTEXTEND
  0
MTEXT
  5
C57
330
C0F
100
AcDbEntity
  8
寸法線
  6
Continuous
100
AcDbMText
 10
2792.534572172564
 20
3924.143015920678
 30
0.0
 40
20.0
 41
17.2146
 71
     7
 72
     1
  1

 73
     1
 44
1.0
1001
ACAD
1000
MTEXTBEGIN
1070
    73
1070
     1
1070
    44
1040
1.0
1070
    74
1070
     0
1000
MTEXTEND
  0
MTEXT
  5
C58
330
C0F
100
AcDbEntity
  8
寸法線
  6
Continuous
100
AcDbMText
 10
3254.707561324073
 20
1932.70662955523
 30
0.0
 40
20.0
 41
17.2146
 71
     7
 72
     1
  1

 73
     1
 44
1.0
1001
ACAD
1000
MTEXTBEGIN
1070
    73
1070
     1
1070
    44
1040
1.0
1070
    74
1070
     0
1000
MTEXTEND
  0
MTEXT
  5
C59
330
C0F
100
AcDbEntity
  8
寸法線
  6
Continuous
100
AcDbMText
 10
3527.793386323247
 20
3934.210364768416
 30
0.0
 40
30.0
 41
17.2146
 71
     7
 72
     1
  1

 73
     1
 44
1.0
1001
ACAD
1000
MTEXTBEGIN
1070
    73
1070
     1
1070
    44
1040
1.0
1070
    74
1070
     0
1000
MTEXTEND
  0
MTEXT
  5
C5A
330
C0F
100
AcDbEntity
  8
寸法線
  6
Continuous
100
AcDbMText
 10
2792.534572172564
 20
3906.643015920678
 30
0.0
 40
20.0
 41
17.2146
 71
     7
 72
     1
  1

 73
     1
 44
1.0
1001
ACAD
1000
MTEXTBEGIN
1070
    73
1070
     1
1070
    44
1040
1.0
1070
    74
1070
     0
1000
MTEXTEND
  0
MTEXT
  5
C5B
330
C0F
100
AcDbEntity
  8
寸法線
  6
Continuous
100
AcDbMText
 10
3254.707561324073
 20
1882.70662955523
 30
0.0
 40
20.0
 41
17.2146
 71
     7
 72
     1
  1

 73
     1
 44
1.0
1001
ACAD
1000
MTEXTBEGIN
1070
    73
1070
     1
1070
    44
1040
1.0
1070
    74
1070
     0
1000
MTEXTEND
  0
MTEXT
  5
C5C
330
C0F
100
AcDbEntity
  8
寸法線
  6
Continuous
100
AcDbMText
 10
3527.793386323247
 20
3884.210364768416
 30
0.0
 40
30.0
 41
17.2146
 71
     7
 72
     1
  1

 73
     1
 44
1.0
1001
ACAD
1000
MTEXTBEGIN
1070
    73
1070
     1
1070
    44
1040
1.0
1070
    74
1070
     0
1000
MTEXTEND
  0
MTEXT
  5
C5D
330
C0F
100
AcDbEntity
  8
寸法線
  6
Continuous
100
AcDbMText
 10
2792.534572172564
 20
3856.643015920678
 30
0.0
 40
20.0
 41
17.2146
 71
     7
 72
     1
  1

 73
     1
 44
1.0
1001
ACAD
1000
MTEXTBEGIN
1070
    73
1070
     1
1070
    44
1040
1.0
1070
    74
1070
     0
1000
MTEXTEND
  0
MTEXT
  5
C5E
330
C0F
100
AcDbEntity
  8
寸法線
  6
Continuous
100
AcDbMText
 10
3254.707561324073
 20
1832.70662955523
 30
0.0
 40
20.0
 41
17.2146
 71
     7
 72
     1
  1

 73
     1
 44
1.0
1001
ACAD
1000
MTEXTBEGIN
1070
    73
1070
     1
1070
    44
1040
1.0
1070
    74
1070
     0
1000
MTEXTEND
  0
MTEXT
  5
C5F
330
C0F
100
AcDbEntity
  8
寸法線
  6
Continuous
100
AcDbMText
 10
3527.793386323247
 20
3834.210364768416
 30
0.0
 40
30.0
 41
17.2146
 71
     7
 72
     1
  1

 73
     1
 44
1.0
1001
ACAD
1000
MTEXTBEGIN
1070
    73
1070
     1
1070
    44
1040
1.0
1070
    74
1070
     0
1000
MTEXTEND
  0
MTEXT
  5
C60
330
C0F
100
AcDbEntity
  8
寸法線
  6
Continuous
100
AcDbMText
 10
2792.534572172564
 20
3806.643015920678
 30
0.0
 40
20.0
 41
17.2146
 71
     7
 72
     1
  1

 73
     1
 44
1.0
1001
ACAD
1000
MTEXTBEGIN
1070
    73
1070
     1
1070
    44
1040
1.0
1070
    74
1070
     0
1000
MTEXTEND
  0
MTEXT
  5
C61
330
C0F
100
AcDbEntity
  8
寸法線
  6
Continuous
100
AcDbMText
 10
3254.707561324073
 20
1782.70662955523
 30
0.0
 40
20.0
 41
17.2146
 71
     7
 72
     1
  1

 73
     1
 44
1.0
1001
ACAD
1000
MTEXTBEGIN
1070
    73
1070
     1
1070
    44
1040
1.0
1070
    74
1070
     0
1000
MTEXTEND
  0
MTEXT
  5
C62
330
C0F
100
AcDbEntity
  8
寸法線
  6
Continuous
100
AcDbMText
 10
3527.793386323247
 20
3784.210364768416
 30
0.0
 40
30.0
 41
17.2146
 71
     7
 72
     1
  1

 73
     1
 44
1.0
1001
ACAD
1000
MTEXTBEGIN
1070
    73
1070
     1
1070
    44
1040
1.0
1070
    74
1070
     0
1000
MTEXTEND
  0
MTEXT
  5
C63
330
C0F
100
AcDbEntity
  8
寸法線
  6
Continuous
100
AcDbMText
 10
2792.534572172564
 20
3756.643015920678
 30
0.0
 40
20.0
 41
17.2146
 71
     7
 72
     1
  1

 73
     1
 44
1.0
1001
ACAD
1000
MTEXTBEGIN
1070
    73
1070
     1
1070
    44
1040
1.0
1070
    74
1070
     0
1000
MTEXTEND
  0
MTEXT
  5
C64
330
C0F
100
AcDbEntity
  8
寸法線
  6
Continuous
100
AcDbMText
 10
3254.707561324073
 20
1732.70662955523
 30
0.0
 40
20.0
 41
17.2146
 71
     7
 72
     1
  1

 73
     1
 44
1.0
1001
ACAD
1000
MTEXTBEGIN
1070
    73
1070
     1
1070
    44
1040
1.0
1070
    74
1070
     0
1000
MTEXTEND
  0
MTEXT
  5
C65
330
C0F
100
AcDbEntity
  8
寸法線
  6
Continuous
100
AcDbMText
 10
3527.793386323247
 20
3734.210364768415
 30
0.0
 40
30.0
 41
17.2146
 71
     7
 72
     1
  1

 73
     1
 44
1.0
1001
ACAD
1000
MTEXTBEGIN
1070
    73
1070
     1
1070
    44
1040
1.0
1070
    74
1070
     0
1000
MTEXTEND
  0
MTEXT
  5
C66
330
C0F
100
AcDbEntity
  8
寸法線
  6
Continuous
100
AcDbMText
 10
2792.534572172564
 20
3706.643015920678
 30
0.0
 40
20.0
 41
17.2146
 71
     7
 72
     1
  1

 73
     1
 44
1.0
1001
ACAD
1000
MTEXTBEGIN
1070
    73
1070
     1
1070
    44
1040
1.0
1070
    74
1070
     0
1000
MTEXTEND
  0
MTEXT
  5
C67
330
C0F
100
AcDbEntity
  8
寸法線
  6
Continuous
100
AcDbMText
 10
3254.707561324073
 20
1682.70662955523
 30
0.0
 40
20.0
 41
17.2146
 71
     7
 72
     1
  1

 73
     1
 44
1.0
1001
ACAD
1000
MTEXTBEGIN
1070
    73
1070
     1
1070
    44
1040
1.0
1070
    74
1070
     0
1000
MTEXTEND
  0
MTEXT
  5
C68
330
C0F
100
AcDbEntity
  8
寸法線
  6
Continuous
100
AcDbMText
 10
3527.793386323247
 20
3684.210364768417
 30
0.0
 40
30.0
 41
17.2146
 71
     7
 72
     1
  1

 73
     1
 44
1.0
1001
ACAD
1000
MTEXTBEGIN
1070
    73
1070
     1
1070
    44
1040
1.0
1070
    74
1070
     0
1000
MTEXTEND
  0
MTEXT
  5
C69
330
C0F
100
AcDbEntity
  8
寸法線
  6
Continuous
100
AcDbMText
 10
2792.534572172564
 20
3656.643015920678
 30
0.0
 40
20.0
 41
17.2146
 71
     7
 72
     1
  1

 73
     1
 44
1.0
1001
ACAD
1000
MTEXTBEGIN
1070
    73
1070
     1
1070
    44
1040
1.0
1070
    74
1070
     0
1000
MTEXTEND
  0
MTEXT
  5
C6A
330
C0F
100
AcDbEntity
  8
寸法線
  6
Continuous
100
AcDbMText
 10
3254.707561324073
 20
1632.70662955523
 30
0.0
 40
20.0
 41
17.2146
 71
     7
 72
     1
  1

 73
     1
 44
1.0
1001
ACAD
1000
MTEXTBEGIN
1070
    73
1070
     1
1070
    44
1040
1.0
1070
    74
1070
     0
1000
MTEXTEND
  0
MTEXT
  5
C6B
330
C0F
100
AcDbEntity
  8
寸法線
  6
Continuous
100
AcDbMText
 10
3527.793386323247
 20
3634.210364768416
 30
0.0
 40
30.0
 41
17.2146
 71
     7
 72
     1
  1

 73
     1
 44
1.0
1001
ACAD
1000
MTEXTBEGIN
1070
    73
1070
     1
1070
    44
1040
1.0
1070
    74
1070
     0
1000
MTEXTEND
  0
MTEXT
  5
C6C
330
C0F
100
AcDbEntity
  8
寸法線
  6
Continuous
100
AcDbMText
 10
2792.534572172564
 20
3606.643015920678
 30
0.0
 40
20.0
 41
17.2146
 71
     7
 72
     1
  1

 73
     1
 44
1.0
1001
ACAD
1000
MTEXTBEGIN
1070
    73
1070
     1
1070
    44
1040
1.0
1070
    74
1070
     0
1000
MTEXTEND
  0
MTEXT
  5
C6D
330
C0F
100
AcDbEntity
  8
寸法線
  6
Continuous
100
AcDbMText
 10
2562.710713804617
 20
666.2181883698398
 30
0.0
 40
20.0
 41
17.2146
 71
     7
 72
     1
  1

 73
     1
 44
1.0
1001
ACAD
1000
MTEXTBEGIN
1070
    73
1070
     1
1070
    44
1040
1.0
1070
    74
1070
     0
1000
MTEXTEND
  0
MTEXT
  5
C6E
330
C0F
100
AcDbEntity
  8
寸法線
  6
Continuous
100
AcDbMText
 10
2835.796538803792
 20
2667.721923583026
 30
0.0
 40
30.0
 41
17.2146
 71
     7
 72
     1
  1

 73
     1
 44
1.0
1001
ACAD
1000
MTEXTBEGIN
1070
    73
1070
     1
1070
    44
1040
1.0
1070
    74
1070
     0
1000
MTEXTEND
  0
MTEXT
  5
C6F
330
C0F
100
AcDbEntity
  8
寸法線
  6
Continuous
100
AcDbMText
 10
3449.059126161877
 20
2750.112164379881
 30
0.0
 40
20.0
 41
17.2146
 71
     7
 72
     1
  1

 73
     1
 44
1.0
1001
ACAD
1000
MTEXTBEGIN
1070
    73
1070
     1
1070
    44
1040
1.0
1070
    74
1070
     0
1000
MTEXTEND
  0
MTEXT
  5
C70
330
C0F
100
AcDbEntity
  8
寸法線
  6
Continuous
100
AcDbMText
 10
4190.359126161878
 20
2750.112164379881
 30
0.0
 40
20.0
 41
17.2146
 71
     7
 72
     1
  1

 73
     1
 44
1.0
1001
ACAD
1000
MTEXTBEGIN
1070
    73
1070
     1
1070
    44
1040
1.0
1070
    74
1070
     0
1000
MTEXTEND
  0
MTEXT
  5
C71
330
C0F
100
AcDbEntity
  8
寸法線
  6
Continuous
100
AcDbMText
 10
2562.710713804617
 20
666.2181883698398
 30
0.0
 40
20.0
 41
17.2146
 71
     7
 72
     1
  1

 73
     1
 44
1.0
1001
ACAD
1000
MTEXTBEGIN
1070
    73
1070
     1
1070
    44
1040
1.0
1070
    74
1070
     0
1000
MTEXTEND
  0
MTEXT
  5
C72
330
C0F
100
AcDbEntity
  8
寸法線
  6
Continuous
100
AcDbMText
 10
4761.009126161878
 20
3685.11217237988
 30
0.0
 40
20.0
 41
17.2146
 71
     7
 72
     1
  1

 73
     1
 44
1.0
1001
ACAD
1000
MTEXTBEGIN
1070
    73
1070
     1
1070
    44
1040
1.0
1070
    74
1070
     0
1000
MTEXTEND
  0
MTEXT
  5
C73
330
C0F
100
AcDbEntity
  8
寸法線
  6
Continuous
100
AcDbMText
 10
3797.375580721408
 20
555.7946801060333
 30
0.0
 40
20.0
 41
17.2146
 71
     7
 72
     1
  1

 73
     1
 44
1.0
1001
ACAD
1000
MTEXTBEGIN
1070
    73
1070
     1
1070
    44
1040
1.0
1070
    74
1070
     0
1000
MTEXTEND
  0
MTEXT
  5
C74
330
C0F
100
AcDbEntity
  8
寸法線
  6
Continuous
100
AcDbMText
 10
3709.073860315893
 20
1700.001502833864
 30
0.0
 40
20.0
 41
17.2146
 71
     7
 72
     1
  1

 73
     1
 44
1.0
1001
ACAD
1000
MTEXTBEGIN
1070
    73
1070
     1
1070
    44
1040
1.0
1070
    74
1070
     0
1000
MTEXTEND
  0
MTEXT
  5
C75
330
C0F
100
AcDbEntity
  8
寸法線
  6
Continuous
100
AcDbMText
 10
3982.159685315068
 20
3701.50523804705
 30
0.0
 40
30.0
 41
17.2146
 71
     7
 72
     1
  1

 73
     1
 44
1.0
1001
ACAD
1000
MTEXTBEGIN
1070
    73
1070
     1
1070
    44
1040
1.0
1070
    74
1070
     0
1000
MTEXTEND
  0
MTEXT
  5
C76
330
C0F
100
AcDbEntity
  8
寸法線
  6
Continuous
100
AcDbMText
 10
4595.422272673154
 20
3783.895478843904
 30
0.0
 40
20.0
 41
17.2146
 71
     7
 72
     1
  1

 73
     1
 44
1.0
1001
ACAD
1000
MTEXTBEGIN
1070
    73
1070
     1
1070
    44
1040
1.0
1070
    74
1070
     0
1000
MTEXTEND
  0
MTEXT
  5
C77
330
C0F
100
AcDbEntity
  8
寸法線
  6
Continuous
100
AcDbMText
 10
5336.722272673154
 20
3783.895478843904
 30
0.0
 40
20.0
 41
17.2146
 71
     7
 72
     1
  1

 73
     1
 44
1.0
1001
ACAD
1000
MTEXTBEGIN
1070
    73
1070
     1
1070
    44
1040
1.0
1070
    74
1070
     0
1000
MTEXTEND
  0
MTEXT
  5
C78
330
C0F
100
AcDbEntity
  8
寸法線
  6
Continuous
100
AcDbMText
 10
3709.073860315893
 20
1700.001502833864
 30
0.0
 40
20.0
 41
17.2146
 71
     7
 72
     1
  1

 73
     1
 44
1.0
1001
ACAD
1000
MTEXTBEGIN
1070
    73
1070
     1
1070
    44
1040
1.0
1070
    74
1070
     0
1000
MTEXTEND
  0
MTEXT
  5
C79
330
C0F
100
AcDbEntity
  8
寸法線
  6
Continuous
100
AcDbMText
 10
5907.372272673153
 20
4718.895486843903
 30
0.0
 40
20.0
 41
17.2146
 71
     7
 72
     1
  1

 73
     1
 44
1.0
1001
ACAD
1000
MTEXTBEGIN
1070
    73
1070
     1
1070
    44
1040
1.0
1070
    74
1070
     0
1000
MTEXTEND
  0
LWPOLYLINE
  5
C7A
330
C0F
100
AcDbEntity
  8
エンボス
  6
Continuous
100
AcDbPolyline
 90
        4
 70
     1
 43
0.0
 10
-334.3157130905706
 20
286.2431911820901
 10
0.0
 20
286.2431911820901
 10
0.0
 20
0.0
 10
-334.3157130905706
 20
0.0
  0
LINE
  5
C7B
330
C0F
100
AcDbEntity
  8
エンボス
370
     0
100
AcDbLine
 10
-157.5031163161551
 20
191.2365350153615
 30
0.0
 11
-157.5031163161551
 21
11.23653501536151
 31
0.0
  0
LINE
  5
C7C
330
C0F
100
AcDbEntity
  8
エンボス
370
     0
100
AcDbLine
 10
-187.743116316155
 20
191.2365350153615
 30
0.0
 11
-187.743116316155
 21
11.23653501536151
 31
0.0
  0
HATCH
  5
C7D
330
C0F
100
AcDbEntity
  8
エンボス
  6
Continuous
100
AcDbHatch
 10
0.0
 20
0.0
 30
0.0
210
0.0
220
0.0
230
1.0
  2
ANSI31
 70
     0
 71
     0
 91
        6
 92
        7
 72
     0
 73
     1
 93
        4
 10
-176.9431163161553
 20
191.2365350153615
 10
-187.743116316155
 20
191.2365350153615
 10
-187.743116316155
 20
175.6885671314439
 10
-176.9431163161553
 20
175.688567131444
 97
        0
 92
        7
 72
     0
 73
     1
 93
        4
 10
-157.5031163161551
 20
191.2365350153615
 10
-168.3031163161549
 20
191.2365350153615
 10
-168.3031163161549
 20
175.688567131444
 10
-157.5031163161551
 20
175.6885671314439
 97
        0
 92
        7
 72
     0
 73
     1
 93
        4
 10
-157.5031163161551
 20
115.2085671314438
 10
-168.3031163161549
 20
115.2085671314438
 10
-168.3031163161549
 20
89.28856713144389
 10
-157.5031163161551
 20
89.28856713144389
 97
        0
 92
        7
 72
     0
 73
     1
 93
        4
 10
-176.9431163161553
 20
115.2085671314438
 10
-187.743116316155
 20
115.2085671314438
 10
-187.743116316155
 20
89.28856713144389
 10
-176.9431163161553
 20
89.28856713144389
 97
        0
 92
        7
 72
     0
 73
     1
 93
        4
 10
-176.9431163161553
 20
28.80856713144387
 10
-187.743116316155
 20
28.80856713144387
 10
-187.743116316155
 20
11.23653501536153
 10
-176.9431163161553
 20
11.23653501536153
 97
        0
 92
        7
 72
     0
 73
     1
 93
        4
 10
-157.5031163161551
 20
28.80856713144387
 10
-168.3031163161549
 20
28.80856713144387
 10
-168.3031163161549
 20
11.23653501536153
 10
-157.5031163161551
 20
11.23653501536157
 97
        0
 75
     0
 76
     1
 52
0.0
 41
0.5
 77
     0
 78
     1
 53
45.0
 43
-292.3177832596193
 44
-97.7997689801889
 45
-1.122532015133643
 46
1.122532015133643
 79
     0
 47
0.3958305108731848
 98
        6
 10
-177.492220551931
 20
182.18596179209
 10
-166.4005462144209
 20
179.8109787800927
 10
-165.2121529599684
 20
106.1865028791899
 10
-178.2844832168939
 20
105.3948421561894
 10
-178.2844832168939
 20
20.68711276129651
 10
-163.6276276300432
 20
18.70796011079952
  0
LINE
  5
C7E
330
C0F
100
AcDbEntity
  8
エンボス
  6
Continuous
100
AcDbLine
 10
-168.3031163161549
 20
191.2361634953614
 30
0.0
 11
-168.3031163161549
 21
11.23653501536151
 31
0.0
  0
LINE
  5
C7F
330
C0F
100
AcDbEntity
  8
エンボス
  6
Continuous
100
AcDbLine
 10
-176.9431163161553
 20
191.2361634953614
 30
0.0
 11
-176.9431163161553
 21
11.23653501536151
 31
0.0
  0
HATCH
  5
C80
330
C0F
100
AcDbEntity
  8
エンボス
  6
Continuous
100
AcDbHatch
 10
0.0
 20
0.0
 30
0.0
210
0.0
220
0.0
230
1.0
  2
ANSI31
 70
     0
 71
     0
 91
        1
 92
        7
 72
     0
 73
     1
 93
        4
 10
-168.3031163161549
 20
191.2365350153615
 10
-176.9431163161553
 20
191.2365350153615
 10
-176.9431163161553
 20
11.23653501536153
 10
-168.3031163161549
 20
11.23653501536151
 97
        0
 75
     0
 76
     1
 52
0.0
 41
0.5
 77
     0
 78
     1
 53
45.0
 43
-292.3177832596193
 44
-97.7997689801889
 45
-1.122532015133643
 46
1.122532015133643
 79
     0
 47
0.563450176776409
 98
        1
 10
-173.943175600677
 20
172.0013308565483
  0
LINE
  5
C81
330
C0F
100
AcDbEntity
  8
エンボス
  6
Continuous
100
AcDbLine
 10
-187.743116316155
 20
33.12856713144393
 30
0.0
 11
-176.9431163161553
 21
33.12856713144393
 31
0.0
  0
LINE
  5
C82
330
C0F
100
AcDbEntity
  8
エンボス
  6
Continuous
100
AcDbLine
 10
-187.743116316155
 20
28.80856713144387
 30
0.0
 11
-176.9431163161553
 21
28.80856713144387
 31
0.0
  0
LINE
  5
C83
330
C0F
100
AcDbEntity
  8
エンボス
  6
Continuous
100
AcDbLine
 10
-168.3031163161549
 20
33.12856713144393
 30
0.0
 11
-157.5031163161551
 21
33.12856713144393
 31
0.0
  0
LINE
  5
C84
330
C0F
100
AcDbEntity
  8
エンボス
  6
Continuous
100
AcDbLine
 10
-168.3031163161549
 20
28.80856713144387
 30
0.0
 11
-157.5031163161551
 21
28.80856713144387
 31
0.0
  0
LINE
  5
C85
330
C0F
100
AcDbEntity
  8
エンボス
  6
Continuous
100
AcDbLine
 10
-187.743116316155
 20
84.96856713144385
 30
0.0
 11
-176.9431163161553
 21
84.96856713144385
 31
0.0
  0
LINE
  5
C86
330
C0F
100
AcDbEntity
  8
エンボス
  6
Continuous
100
AcDbLine
 10
-187.743116316155
 20
89.28856713144389
 30
0.0
 11
-176.9431163161553
 21
89.28856713144389
 31
0.0
  0
LINE
  5
C87
330
C0F
100
AcDbEntity
  8
エンボス
  6
Continuous
100
AcDbLine
 10
-187.743116316155
 20
115.2085671314438
 30
0.0
 11
-176.9431163161553
 21
115.2085671314438
 31
0.0
  0
LINE
  5
C88
330
C0F
100
AcDbEntity
  8
エンボス
  6
Continuous
100
AcDbLine
 10
-187.743116316155
 20
119.5285671314439
 30
0.0
 11
-176.9431163161553
 21
119.5285671314439
 31
0.0
  0
LINE
  5
C89
330
C0F
100
AcDbEntity
  8
エンボス
  6
Continuous
100
AcDbLine
 10
-187.743116316155
 20
171.3685671314439
 30
0.0
 11
-176.9431163161553
 21
171.368567131444
 31
0.0
  0
LINE
  5
C8A
330
C0F
100
AcDbEntity
  8
エンボス
  6
Continuous
100
AcDbLine
 10
-187.743116316155
 20
175.6885671314439
 30
0.0
 11
-176.9431163161553
 21
175.688567131444
 31
0.0
  0
LINE
  5
C8B
330
C0F
100
AcDbEntity
  8
エンボス
  6
Continuous
100
AcDbLine
 10
-168.3031163161549
 20
115.2085671314438
 30
0.0
 11
-157.5031163161551
 21
115.2085671314438
 31
0.0
  0
LINE
  5
C8C
330
C0F
100
AcDbEntity
  8
エンボス
  6
Continuous
100
AcDbLine
 10
-168.3031163161549
 20
84.96856713144385
 30
0.0
 11
-157.5031163161551
 21
84.96856713144385
 31
0.0
  0
LINE
  5
C8D
330
C0F
100
AcDbEntity
  8
エンボス
  6
Continuous
100
AcDbLine
 10
-168.3031163161549
 20
89.28856713144389
 30
0.0
 11
-157.5031163161551
 21
89.28856713144389
 31
0.0
  0
LINE
  5
C8E
330
C0F
100
AcDbEntity
  8
エンボス
  6
Continuous
100
AcDbLine
 10
-168.3031163161549
 20
119.5285671314439
 30
0.0
 11
-157.5031163161551
 21
119.5285671314439
 31
0.0
  0
LINE
  5
C8F
330
C0F
100
AcDbEntity
  8
エンボス
  6
Continuous
100
AcDbLine
 10
-168.3031163161549
 20
171.368567131444
 30
0.0
 11
-157.5031163161551
 21
171.3685671314439
 31
0.0
  0
LINE
  5
C90
330
C0F
100
AcDbEntity
  8
エンボス
  6
Continuous
100
AcDbLine
 10
-168.3031163161549
 20
175.688567131444
 30
0.0
 11
-157.5031163161551
 21
175.6885671314439
 31
0.0
  0
TEXT
  5
C91
330
C0F
100
AcDbEntity
  8
エンボス
  6
Continuous
100
AcDbText
 10
-294.1412150274573
 20
240.5024615214613
 30
0.0
 40
30.0
  1
HGIB形状詳細
100
AcDbText
1001
ACAD
1000
MTEXTBEGIN
1070
    73
1070
     1
1070
    44
1040
1.0
1070
    74
1070
     0
1000
MTEXTEND
1000
MTEXTBEGIN
1070
    73
1070
     1
1070
    44
1040
1.0
1070
    74
1070
     0
1000
MTEXTEND
1000
MTEXTBEGIN
1070
    73
1070
     1
1070
    44
1040
1.0
1070
    74
1070
     0
1000
MTEXTEND
1000
MTEXTBEGIN
1070
    73
1070
     1
1070
    44
1040
1.0
1070
    74
1070
     0
1000
MTEXTEND
  0
MTEXT
  5
C92
330
C0F
100
AcDbEntity
  8
エンボス
  6
Continuous
100
AcDbMText
 10
-263.7566471803202
 20
226.2734505767348
 30
0.0
 40
15.0
 41
256.2474
 71
     1
 72
     5
  1
※塗りつぶし部分突起
 73
     1
 44
1.0
1001
ACAD
1000
MTEXTBEGIN
1070
    73
1070
     1
1070
    44
1040
1.0
1070
    74
1070
     0
1000
MTEXTEND
  0
ENDBLK
  5
C94
330
C0F
100
AcDbEntity
  8
0
 48
3.0
100
AcDbBlockEnd
  0
BLOCK
  5
14A4
330
14A0
100
AcDbEntity
  8
0
 48
3.0
100
AcDbBlockBegin
  2
清水
 70
     0
 10
0.0
 20
0.0
 30
0.0
  3
清水
  1

  0
MTEXT
  5
14A1
330
14A0
100
AcDbEntity
  8
外枠
  6
Continuous
100
AcDbMText
 10
40.55333581259037
 20
-88.14888116777728
 30
0.0
 40
28.17460800000001
 41
43.8527
 71
     1
 72
     5
  1
{\fHG正楷書体-PRO|b0|i0|c128|p65;水}
 73
     1
 44
1.0
1001
ACAD
1000
MTEXTBEGIN
1070
    73
1070
     1
1070
    44
1040
1.0
1070
    74
1070
     0
1000
MTEXTEND
  0
MTEXT
  5
14A2
330
14A0
100
AcDbEntity
  8
外枠
  6
Continuous
100
AcDbMText
 10
40.55333581259037
 20
-45.6188562986499
 30
0.0
 40
28.17460800000001
 41
43.8527
 71
     1
 72
     5
  1
{\fHG正楷書体-PRO|b0|i0|c128|p65;清}
 73
     1
 44
1.0
1001
ACAD
1000
MTEXTBEGIN
1070
    73
1070
     1
1070
    44
1040
1.0
1070
    74
1070
     0
1000
MTEXTEND
  0
ELLIPSE
  5
14A3
330
14A0
100
AcDbEntity
  8
外枠
  6
Continuous
100
AcDbEllipse
 10
61.68068686355035
 20
-84.59863033186413
 30
0.0
 11
0.0
 21
-47.85944421494259
 31
0.0
210
0.0
220
0.0
230
1.0
 40
0.7999999999999857
 41
0.0
 42
6.283185307179585
  0
ENDBLK
  5
14A5
330
14A0
100
AcDbEntity
  8
0
 48
3.0
100
AcDbBlockEnd
  0
BLOCK
  5
15AA
330
15A8
100
AcDbEntity
  8
0
 48
3.0
100
AcDbBlockBegin
  2
GFB新
 70
     0
 10
0.0
 20
0.0
 30
0.0
  3
GFB新
  1

  0
LINE
  5
15AB
330
15A8
100
AcDbEntity
  8
エンボス
370
     0
100
AcDbLine
 10
-201.8431163161554
 20
211.018054223251
 30
0.0
 11
-201.8431163161554
 21
31.01805422325097
 31
0.0
  0
LINE
  5
15AC
330
15A8
100
AcDbEntity
  8
エンボス
370
     0
100
AcDbLine
 10
-171.6031163161556
 20
211.018054223251
 30
0.0
 11
-171.6031163161556
 21
31.01805422325097
 31
0.0
  0
LWPOLYLINE
  5
15AD
330
15A8
100
AcDbEntity
  8
エンボス
  6
Continuous
100
AcDbPolyline
 90
        4
 70
     1
 43
0.0
 10
-348.415713090571
 20
299.7131911820901
 10
-14.10000000000036
 20
299.7131911820901
 10
-14.10000000000036
 20
13.47
 10
-348.415713090571
 20
13.47
  0
HATCH
  5
15AE
330
15A8
100
AcDbEntity
  8
エンボス
 48
3.0
100
AcDbHatch
 10
0.0
 20
0.0
 30
0.0
210
0.0
220
0.0
230
1.0
  2
ANSI31
 70
     0
 71
     0
 91
        2
 92
        7
 72
     0
 73
     1
 93
        4
 10
-171.6031163161556
 20
183.648232740995
 10
-201.8431163161554
 20
183.648232740995
 10
-201.8431163161554
 20
143.648232740995
 10
-171.6031163161556
 20
143.648232740995
 97
        0
 92
        7
 72
     0
 73
     1
 93
        4
 10
-171.6031163161551
 20
103.648232740995
 10
-201.8431163161554
 20
103.648232740995
 10
-201.8431163161554
 20
63.64823274099503
 10
-171.6031163161556
 20
63.64823274099503
 97
        0
 75
     0
 76
     1
 52
0.0
 41
1.0
 77
     0
 78
     1
 53
45.0
 43
-2600.230945379155
 44
55.27481481577524
 45
-2.245064030267287
 46
2.245064030267287
 79
     0
 47
0.6338635763914874
 98
        2
 10
-184.3538551621914
 20
165.9540090799865
 10
-180.5493471399022
 20
94.32742487381712
  0
LINE
  5
15AF
330
15A8
100
AcDbEntity
  8
エンボス
  6
Continuous
100
AcDbLine
 10
-201.8431163161554
 20
183.648232740995
 30
0.0
 11
-171.6031163161551
 21
183.648232740995
 31
0.0
  0
LINE
  5
15B0
330
15A8
100
AcDbEntity
  8
エンボス
  6
Continuous
100
AcDbLine
 10
-201.8431163161554
 20
143.648232740995
 30
0.0
 11
-171.6031163161551
 21
143.648232740995
 31
0.0
  0
LINE
  5
15B1
330
15A8
100
AcDbEntity
  8
エンボス
  6
Continuous
100
AcDbLine
 10
-201.8431163161554
 20
103.648232740995
 30
0.0
 11
-171.6031163161551
 21
103.648232740995
 31
0.0
  0
LINE
  5
15B2
330
15A8
100
AcDbEntity
  8
エンボス
  6
Continuous
100
AcDbLine
 10
-201.8431163161554
 20
63.64823274099503
 30
0.0
 11
-171.6031163161551
 21
63.64823274099503
 31
0.0
  0
TEXT
  5
15B3
330
15A8
100
AcDbEntity
  8
エンボス
  6
Continuous
100
AcDbText
 10
-308.2412150274576
 20
253.9724615214614
 30
0.0
 40
30.0
  1
GFB形状詳細
100
AcDbText
1001
ACAD
1000
MTEXTBEGIN
1070
    73
1070
     1
1070
    44
1040
1.0
1070
    74
1070
     0
1000
MTEXTEND
1000
MTEXTBEGIN
1070
    73
1070
     1
1070
    44
1040
1.0
1070
    74
1070
     0
1000
MTEXTEND
1000
MTEXTBEGIN
1070
    73
1070
     1
1070
    44
1040
1.0
1070
    74
1070
     0
1000
MTEXTEND
1000
MTEXTBEGIN
1070
    73
1070
     1
1070
    44
1040
1.0
1070
    74
1070
     0
1000
MTEXTEND
  0
MTEXT
  5
15B4
330
15A8
100
AcDbEntity
  8
エンボス
  6
Continuous
100
AcDbMText
 10
-277.8566471803206
 20
239.7434505767348
 30
0.0
 40
15.0
 41
256.2474
 71
     1
 72
     5
  1
※塗りつぶし部分突起
 73
     1
 44
1.0
1001
ACAD
1000
MTEXTBEGIN
1070
    73
1070
     1
1070
    44
1040
1.0
1070
    74
1070
     0
1000
MTEXTEND
  0
ENDBLK
  5
15B5
330
15A8
100
AcDbEntity
  8
0
 48
3.0
100
AcDbBlockEnd
  0
BLOCK
  5
3058
330
3057
100
AcDbEntity
  8
0
 48
3.0
100
AcDbBlockBegin
  2
*D24
 70
     1
 10
0.0
 20
0.0
 30
0.0
  3
*D24
  1

  0
LINE
  5
4CCF
330
3057
100
AcDbEntity
  8
寸法線
  6
Continuous
 62
     0
370
    -2
100
AcDbLine
 10
574.3943726623065
 20
1493.654661667708
 30
0.0
 11
574.3943726623065
 21
1648.656144393191
 31
0.0
  0
LINE
  5
4CD0
330
3057
100
AcDbEntity
  8
寸法線
  6
Continuous
 62
     0
370
    -2
100
AcDbLine
 10
1074.394372662306
 20
1493.654661667708
 30
0.0
 11
1074.394372662306
 21
1648.656144393191
 31
0.0
  0
LINE
  5
4CD1
330
3057
100
AcDbEntity
  8
寸法線
  6
Continuous
 62
     0
370
    -2
100
AcDbLine
 10
589.3943726623064
 20
1633.656144393191
 30
0.0
 11
1059.394372662306
 21
1633.656144393191
 31
0.0
  0
INSERT
  5
4CD2
330
3057
100
AcDbEntity
  8
寸法線
  6
Continuous
 62
     0
370
    -2
100
AcDbBlockReference
  2
_Open30
 10
574.3943726623065
 20
1633.656144393191
 30
0.0
 41
15.0
 42
15.0
 43
15.0
 50
180.0
  0
INSERT
  5
4CD3
330
3057
100
AcDbEntity
  8
寸法線
  6
Continuous
 62
     0
370
    -2
100
AcDbBlockReference
  2
_Open30
 10
1074.394372662306
 20
1633.656144393191
 30
0.0
 41
15.0
 42
15.0
 43
15.0
  0
MTEXT
  5
4CD4
330
3057
100
AcDbEntity
  8
寸法線
  6
Continuous
 62
     0
100
AcDbMText
 10
824.3943726623065
 20
1653.656144393191
 30
0.0
 40
30.0
 41
0.0
 71
     5
 72
     1
  1
500
 73
     1
 44
1.0
1001
ACAD
1000
MTEXTBEGIN
1070
    73
1070
     1
1070
    44
1040
1.0
1070
    74
1070
     0
1000
MTEXTEND
  0
POINT
  5
4CD5
330
3057
100
AcDbEntity
  8
Defpoints
  6
Continuous
 62
     0
100
AcDbPoint
 10
574.3943726623065
 20
1473.654661667708
 30
0.0
  0
POINT
  5
4CD6
330
3057
100
AcDbEntity
  8
Defpoints
  6
Continuous
 62
     0
100
AcDbPoint
 10
1074.394372662306
 20
1473.654661667708
 30
0.0
  0
POINT
  5
4CD7
330
3057
100
AcDbEntity
  8
Defpoints
  6
Continuous
 62
     0
100
AcDbPoint
 10
1074.394372662306
 20
1633.656144393191
 30
0.0
  0
ENDBLK
  5
3059
330
3057
100
AcDbEntity
  8
0
 48
3.0
100
AcDbBlockEnd
  0
BLOCK
  5
3064
330
3063
100
AcDbEntity
  8
0
 48
3.0
100
AcDbBlockBegin
  2
*D25
 70
     1
 10
0.0
 20
0.0
 30
0.0
  3
*D25
  1

  0
LINE
  5
4CD8
330
3063
100
AcDbEntity
  8
寸法線
  6
Continuous
 62
     0
370
    -2
100
AcDbLine
 10
1091.894372662306
 20
1408.654661667708
 30
0.0
 11
1199.394372662306
 21
1408.654661667708
 31
0.0
  0
LINE
  5
4CD9
330
3063
100
AcDbEntity
  8
寸法線
  6
Continuous
 62
     0
370
    -2
100
AcDbLine
 10
1091.894372662306
 20
1473.654661667708
 30
0.0
 11
1199.394372662306
 21
1473.654661667708
 31
0.0
  0
LINE
  5
4CDA
330
3063
100
AcDbEntity
  8
寸法線
  6
Continuous
 62
     0
370
    -2
100
AcDbLine
 10
1184.394372662306
 20
1423.654661667708
 30
0.0
 11
1184.394372662306
 21
1458.654661667708
 31
0.0
  0
INSERT
  5
4CDB
330
3063
100
AcDbEntity
  8
寸法線
  6
Continuous
 62
     0
370
    -2
100
AcDbBlockReference
  2
_Open30
 10
1184.394372662306
 20
1408.654661667708
 30
0.0
 41
15.0
 42
15.0
 43
15.0
 50
270.0
  0
INSERT
  5
4CDC
330
3063
100
AcDbEntity
  8
寸法線
  6
Continuous
 62
     0
370
    -2
100
AcDbBlockReference
  2
_Open30
 10
1184.394372662306
 20
1473.654661667708
 30
0.0
 41
15.0
 42
15.0
 43
15.0
 50
90.0
  0
MTEXT
  5
4CDD
330
3063
100
AcDbEntity
  8
寸法線
  6
Continuous
 62
     0
100
AcDbMText
 10
1164.394372662306
 20
1441.154661667708
 30
0.0
 40
30.0
 41
0.0
 71
     5
 72
     1
  1
65
 11
0.0000000000000001
 21
1.0
 31
0.0
 73
     1
 44
1.0
1001
ACAD
1000
MTEXTBEGIN
1070
    73
1070
     1
1070
    44
1040
1.0
1070
    74
1070
     0
1000
MTEXTEND
  0
POINT
  5
4CDE
330
3063
100
AcDbEntity
  8
Defpoints
  6
Continuous
 62
     0
100
AcDbPoint
 10
1071.894372662306
 20
1408.654661667708
 30
0.0
  0
POINT
  5
4CDF
330
3063
100
AcDbEntity
  8
Defpoints
  6
Continuous
 62
     0
100
AcDbPoint
 10
1071.894372662306
 20
1473.654661667708
 30
0.0
  0
POINT
  5
4CE0
330
3063
100
AcDbEntity
  8
Defpoints
  6
Continuous
 62
     0
100
AcDbPoint
 10
1184.394372662306
 20
1473.654661667708
 30
0.0
  0
ENDBLK
  5
3065
330
3063
100
AcDbEntity
  8
0
 48
3.0
100
AcDbBlockEnd
  0
BLOCK
  5
3088
330
3087
100
AcDbEntity
  8
0
 48
3.0
100
AcDbBlockBegin
  2
*D26
 70
     1
 10
0.0
 20
0.0
 30
0.0
  3
*D26
  1

  0
LINE
  5
4CE1
330
3087
100
AcDbEntity
  8
寸法線
  6
Continuous
 62
     0
370
    -2
100
AcDbLine
 10
831.8943726623064
 20
1498.783896262257
 30
0.0
 11
831.8943726623064
 21
1568.654661667708
 31
0.0
  0
LINE
  5
4CE2
330
3087
100
AcDbEntity
  8
寸法線
  6
Continuous
 62
     0
370
    -2
100
AcDbLine
 10
846.8943726623065
 20
1498.783896262257
 30
0.0
 11
846.8943726623065
 21
1568.654661667708
 31
0.0
  0
LINE
  5
4CE3
330
3087
100
AcDbEntity
  8
寸法線
  6
Continuous
 62
     0
370
    -2
100
AcDbLine
 10
816.8943726623066
 20
1553.654661667708
 30
0.0
 11
801.8943726623065
 21
1553.654661667708
 31
0.0
  0
LINE
  5
4CE4
330
3087
100
AcDbEntity
  8
寸法線
  6
Continuous
 62
     0
370
    -2
100
AcDbLine
 10
861.8943726623065
 20
1553.654661667708
 30
0.0
 11
919.787773677535
 21
1553.654661667708
 31
0.0
  0
LINE
  5
4CE5
330
3087
100
AcDbEntity
  8
寸法線
  6
Continuous
 62
     0
370
    -2
100
AcDbLine
 10
831.8943726623064
 20
1553.654661667708
 30
0.0
 11
846.8943726623065
 21
1553.654661667708
 31
0.0
  0
INSERT
  5
4CE6
330
3087
100
AcDbEntity
  8
寸法線
  6
Continuous
 62
     0
370
    -2
100
AcDbBlockReference
  2
_Open30
 10
831.8943726623064
 20
1553.654661667708
 30
0.0
 41
15.0
 42
15.0
 43
15.0
  0
INSERT
  5
4CE7
330
3087
100
AcDbEntity
  8
寸法線
  6
Continuous
 62
     0
370
    -2
100
AcDbBlockReference
  2
_Open30
 10
846.8943726623065
 20
1553.654661667708
 30
0.0
 41
15.0
 42
15.0
 43
15.0
 50
180.0
  0
MTEXT
  5
4CE8
330
3087
100
AcDbEntity
  8
寸法線
  6
Continuous
 62
     0
100
AcDbMText
 10
898.3410731699208
 20
1573.654661667708
 30
0.0
 40
30.0
 41
0.0
 71
     5
 72
     1
  1
15
 73
     1
 44
1.0
1001
ACAD
1000
MTEXTBEGIN
1070
    73
1070
     1
1070
    44
1040
1.0
1070
    74
1070
     0
1000
MTEXTEND
  0
POINT
  5
4CE9
330
3087
100
AcDbEntity
  8
Defpoints
  6
Continuous
 62
     0
100
AcDbPoint
 10
831.8943726623064
 20
1478.783896262257
 30
0.0
  0
POINT
  5
4CEA
330
3087
100
AcDbEntity
  8
Defpoints
  6
Continuous
 62
     0
100
AcDbPoint
 10
846.8943726623065
 20
1478.783896262257
 30
0.0
  0
POINT
  5
4CEB
330
3087
100
AcDbEntity
  8
Defpoints
  6
Continuous
 62
     0
100
AcDbPoint
 10
846.8943726623065
 20
1553.654661667708
 30
0.0
  0
ENDBLK
  5
3089
330
3087
100
AcDbEntity
  8
0
 48
3.0
100
AcDbBlockEnd
  0
BLOCK
  5
316C
330
3167
100
AcDbEntity
  8
0
 48
3.0
100
AcDbBlockBegin
  2
鎌下
 70
     0
 10
0.0
 20
0.0
 30
0.0
  3
鎌下
  1

  0
MTEXT
  5
3168
330
3167
100
AcDbEntity
  8
外枠
  6
Continuous
100
AcDbMText
 10
40.55333581259037
 20
-88.14888116777728
 30
0.0
 40
28.17460800000001
 41
43.8527
 71
     1
 72
     5
  1
{\fHGSeikaishotaiPRO|b0|i0|c128|p65;下}
 73
     1
 44
1.0
1001
ACAD
1000
MTEXTBEGIN
1070
    73
1070
     1
1070
    44
1040
1.0
1070
    74
1070
     0
1000
MTEXTEND
  0
MTEXT
  5
3169
330
3167
100
AcDbEntity
  8
外枠
  6
Continuous
100
AcDbMText
 10
40.55333581259037
 20
-45.6188562986499
 30
0.0
 40
28.17460800000001
 41
43.8527
 71
     1
 72
     5
  1
{\fHGSeikaishotaiPRO|b0|i0|c128|p65;鎌}
 73
     1
 44
1.0
1001
ACAD
1000
MTEXTBEGIN
1070
    73
1070
     1
1070
    44
1040
1.0
1070
    74
1070
     0
1000
MTEXTEND
  0
ELLIPSE
  5
316A
330
3167
100
AcDbEntity
  8
外枠
  6
Continuous
100
AcDbEllipse
 10
61.68068686355035
 20
-84.59863033186413
 30
0.0
 11
0.0
 21
-47.85944421494259
 31
0.0
210
0.0
220
0.0
230
1.0
 40
0.7999999999999857
 41
0.0
 42
6.283185307179585
  0
ENDBLK
  5
316D
330
3167
100
AcDbEntity
  8
0
 48
3.0
100
AcDbBlockEnd
  0
BLOCK
  5
337B
330
337A
100
AcDbEntity
  8
0
 48
3.0
100
AcDbBlockBegin
  2
P-H55
 70
     0
 10
0.0
 20
0.0
 30
0.0
  3
P-H55
  1

  0
LINE
  5
337C
330
337A
100
AcDbEntity
  8
0
100
AcDbLine
 10
2.999997
 20
0.000001
 30
0.0
 11
51.999997
 21
0.000001
 31
0.0
  0
LINE
  5
337D
330
337A
100
AcDbEntity
  8
0
100
AcDbLine
 10
-0.000003
 20
-2.999999
 30
0.0
 11
-0.000003
 21
-36.999999
 31
0.0
  0
LINE
  5
337E
330
337A
100
AcDbEntity
  8
0
100
AcDbLine
 10
2.999997
 20
-39.999999
 30
0.0
 11
51.999997
 21
-39.999999
 31
0.0
  0
ARC
  5
337F
330
337A
100
AcDbEntity
  8
0
100
AcDbCircle
 10
2.999997
 20
-36.999999
 30
0.0
 40
3.0
100
AcDbArc
 50
180.0
 51
270.0
  0
ARC
  5
3380
330
337A
100
AcDbEntity
  8
0
100
AcDbCircle
 10
2.999997
 20
-2.999999
 30
0.0
 40
3.0
100
AcDbArc
 50
90.0
 51
180.0
  0
LINE
  5
3381
330
337A
100
AcDbEntity
  8
0
100
AcDbLine
 10
54.999997
 20
-2.999999
 30
0.0
 11
54.999997
 21
-36.999999
 31
0.0
  0
ARC
  5
3382
330
337A
100
AcDbEntity
  8
0
100
AcDbCircle
 10
51.999997
 20
-2.999999
 30
0.0
 40
3.0
100
AcDbArc
 50
0.0
 51
90.0
  0
ARC
  5
3383
330
337A
100
AcDbEntity
  8
0
100
AcDbCircle
 10
51.999997
 20
-36.999999
 30
0.0
 40
3.0
100
AcDbArc
 50
270.0
 51
0.0
  0
ARC
  5
3384
330
337A
100
AcDbEntity
  8
0
100
AcDbCircle
 10
2.999997
 20
-2.999999
 30
0.0
 40
0.7000000000000002
100
AcDbArc
 50
90.0
 51
180.0
  0
LINE
  5
3385
330
337A
100
AcDbEntity
  8
0
100
AcDbLine
 10
2.299996999999998
 20
-2.999999
 30
0.0
 11
2.299996999999998
 21
-36.999999
 31
0.0
  0
ARC
  5
3386
330
337A
100
AcDbEntity
  8
0
100
AcDbCircle
 10
2.999997
 20
-36.999999
 30
0.0
 40
0.7000000000000002
100
AcDbArc
 50
180.0
 51
270.0
  0
LINE
  5
3387
330
337A
100
AcDbEntity
  8
0
100
AcDbLine
 10
2.999997
 20
-37.69999900000001
 30
0.0
 11
51.999997
 21
-37.69999900000001
 31
0.0
  0
ARC
  5
3388
330
337A
100
AcDbEntity
  8
0
100
AcDbCircle
 10
51.999997
 20
-36.999999
 30
0.0
 40
0.7000000000000002
100
AcDbArc
 50
270.0
 51
0.0
  0
LINE
  5
3389
330
337A
100
AcDbEntity
  8
0
100
AcDbLine
 10
52.69999699999999
 20
-2.999999
 30
0.0
 11
52.69999699999999
 21
-36.999999
 31
0.0
  0
ARC
  5
338A
330
337A
100
AcDbEntity
  8
0
100
AcDbCircle
 10
51.999997
 20
-2.999999
 30
0.0
 40
0.7000000000000002
100
AcDbArc
 50
0.0
 51
90.0
  0
LINE
  5
338B
330
337A
100
AcDbEntity
  8
0
100
AcDbLine
 10
2.999997
 20
-2.299998999999999
 30
0.0
 11
51.999997
 21
-2.299998999999999
 31
0.0
  0
ENDBLK
  5
338C
330
337A
100
AcDbEntity
  8
0
 48
3.0
100
AcDbBlockEnd
  0
BLOCK
  5
4B79
330
4B78
100
AcDbEntity
  8
0
 48
3.0
100
AcDbBlockBegin
  2
*D30
 70
     1
 10
0.0
 20
0.0
 30
0.0
  3
*D30
  1

  0
LINE
  5
4CEC
330
4B78
100
AcDbEntity
  8
寸法線
  6
Continuous
 62
     0
370
    -2
100
AcDbLine
 10
1091.894372662306
 20
1473.654661667708
 30
0.0
 11
1279.40123348957
 21
1473.654661667708
 31
0.0
  0
LINE
  5
4CED
330
4B78
100
AcDbEntity
  8
寸法線
  6
Continuous
 62
     0
370
    -2
100
AcDbLine
 10
1091.894372662306
 20
1348.654661667708
 30
0.0
 11
1279.40123348957
 21
1348.654661667708
 31
0.0
  0
LINE
  5
4CEE
330
4B78
100
AcDbEntity
  8
寸法線
  6
Continuous
 62
     0
370
    -2
100
AcDbLine
 10
1264.40123348957
 20
1458.654661667708
 30
0.0
 11
1264.40123348957
 21
1363.654661667708
 31
0.0
  0
INSERT
  5
4CEF
330
4B78
100
AcDbEntity
  8
寸法線
  6
Continuous
 62
     0
370
    -2
100
AcDbBlockReference
  2
_Open30
 10
1264.40123348957
 20
1473.654661667708
 30
0.0
 41
15.0
 42
15.0
 43
15.0
 50
90.0
  0
INSERT
  5
4CF0
330
4B78
100
AcDbEntity
  8
寸法線
  6
Continuous
 62
     0
370
    -2
100
AcDbBlockReference
  2
_Open30
 10
1264.40123348957
 20
1348.654661667708
 30
0.0
 41
15.0
 42
15.0
 43
15.0
 50
270.0
  0
MTEXT
  5
4CF1
330
4B78
100
AcDbEntity
  8
寸法線
  6
Continuous
 62
     0
100
AcDbMText
 10
1244.401233489569
 20
1411.154661667708
 30
0.0
 40
30.0
 41
0.0
 71
     5
 72
     1
  1
125
 11
0.0000000000000001
 21
1.0
 31
0.0
 73
     1
 44
1.0
1001
ACAD
1000
MTEXTBEGIN
1070
    73
1070
     1
1070
    44
1040
1.0
1070
    74
1070
     0
1000
MTEXTEND
  0
POINT
  5
4CF2
330
4B78
100
AcDbEntity
  8
Defpoints
  6
Continuous
 62
     0
100
AcDbPoint
 10
1071.894372662306
 20
1473.654661667708
 30
0.0
  0
POINT
  5
4CF3
330
4B78
100
AcDbEntity
  8
Defpoints
  6
Continuous
 62
     0
100
AcDbPoint
 10
1071.894372662306
 20
1348.654661667708
 30
0.0
  0
POINT
  5
4CF4
330
4B78
100
AcDbEntity
  8
Defpoints
  6
Continuous
 62
     0
100
AcDbPoint
 10
1264.40123348957
 20
1348.654661667708
 30
0.0
  0
ENDBLK
  5
4B7A
330
4B78
100
AcDbEntity
  8
0
 48
3.0
100
AcDbBlockEnd
  0
BLOCK
  5
4B85
330
4B84
100
AcDbEntity
  8
0
 48
3.0
100
AcDbBlockBegin
  2
*D31
 70
     1
 10
0.0
 20
0.0
 30
0.0
  3
*D31
  1

  0
LINE
  5
4CF5
330
4B84
100
AcDbEntity
  8
寸法線
 62
     0
 48
3.0
370
    -2
100
AcDbLine
 10
1091.894372662306
 20
1353.654661667708
 30
0.0
 11
1199.39899658607
 21
1353.654661667708
 31
0.0
  0
LINE
  5
4CF6
330
4B84
100
AcDbEntity
  8
寸法線
 62
     0
 48
3.0
370
    -2
100
AcDbLine
 10
1094.394372662306
 20
1408.654661667708
 30
0.0
 11
1199.39899658607
 21
1408.654661667708
 31
0.0
  0
LINE
  5
4CF7
330
4B84
100
AcDbEntity
  8
寸法線
 62
     0
 48
3.0
370
    -2
100
AcDbLine
 10
1184.39899658607
 20
1368.654661667708
 30
0.0
 11
1184.39899658607
 21
1393.654661667708
 31
0.0
  0
INSERT
  5
4CF8
330
4B84
100
AcDbEntity
  8
寸法線
 62
     0
 48
3.0
370
    -2
100
AcDbBlockReference
  2
_Open30
 10
1184.39899658607
 20
1353.654661667708
 30
0.0
 41
15.0
 42
15.0
 43
15.0
 50
270.0
  0
INSERT
  5
4CF9
330
4B84
100
AcDbEntity
  8
寸法線
 62
     0
 48
3.0
370
    -2
100
AcDbBlockReference
  2
_Open30
 10
1184.39899658607
 20
1408.654661667708
 30
0.0
 41
15.0
 42
15.0
 43
15.0
 50
90.0
  0
MTEXT
  5
4CFA
330
4B84
100
AcDbEntity
  8
寸法線
 62
     0
 48
3.0
100
AcDbMText
 10
1164.39899658607
 20
1381.154661667708
 30
0.0
 40
30.0
 41
0.0
 71
     5
 72
     1
  1
55
 11
0.0000000000000001
 21
1.0
 31
0.0
 73
     1
 44
1.0
1001
ACAD
1000
MTEXTBEGIN
1070
    73
1070
     1
1070
    44
1040
1.0
1070
    74
1070
     0
1000
MTEXTEND
  0
POINT
  5
4CFB
330
4B84
100
AcDbEntity
  8
Defpoints
 62
     0
 48
3.0
100
AcDbPoint
 10
1071.894372662306
 20
1353.654661667708
 30
0.0
  0
POINT
  5
4CFC
330
4B84
100
AcDbEntity
  8
Defpoints
 62
     0
 48
3.0
100
AcDbPoint
 10
1074.394372662306
 20
1408.654661667708
 30
0.0
  0
POINT
  5
4CFD
330
4B84
100
AcDbEntity
  8
Defpoints
 62
     0
 48
3.0
100
AcDbPoint
 10
1184.39899658607
 20
1408.654661667708
 30
0.0
  0
ENDBLK
  5
4B86
330
4B84
100
AcDbEntity
  8
0
 48
3.0
100
AcDbBlockEnd
  0
BLOCK
  5
4B91
330
4B90
100
AcDbEntity
  8
0
 48
3.0
100
AcDbBlockBegin
  2
*D32
 70
     1
 10
0.0
 20
0.0
 30
0.0
  3
*D32
  1

  0
LINE
  5
4CFE
330
4B90
100
AcDbEntity
  8
寸法線
 62
     0
 48
3.0
370
    -2
100
AcDbLine
 10
1091.894372662306
 20
1353.654661667708
 30
0.0
 11
1199.39899658607
 21
1353.654661667708
 31
0.0
  0
LINE
  5
4CFF
330
4B90
100
AcDbEntity
  8
寸法線
 62
     0
 48
3.0
370
    -2
100
AcDbLine
 10
1091.894372662306
 20
1348.654661667708
 30
0.0
 11
1199.39899658607
 21
1348.654661667708
 31
0.0
  0
LINE
  5
4D00
330
4B90
100
AcDbEntity
  8
寸法線
 62
     0
 48
3.0
370
    -2
100
AcDbLine
 10
1184.39899658607
 20
1368.654661667708
 30
0.0
 11
1184.39899658607
 21
1383.654661667708
 31
0.0
  0
LINE
  5
4D01
330
4B90
100
AcDbEntity
  8
寸法線
 62
     0
 48
3.0
370
    -2
100
AcDbLine
 10
1184.39899658607
 20
1333.654661667708
 30
0.0
 11
1184.39899658607
 21
1293.12166674385
 31
0.0
  0
LINE
  5
4D02
330
4B90
100
AcDbEntity
  8
寸法線
 62
     0
 48
3.0
370
    -2
100
AcDbLine
 10
1184.39899658607
 20
1353.654661667708
 30
0.0
 11
1184.39899658607
 21
1348.654661667708
 31
0.0
  0
INSERT
  5
4D03
330
4B90
100
AcDbEntity
  8
寸法線
 62
     0
 48
3.0
370
    -2
100
AcDbBlockReference
  2
_Open30
 10
1184.39899658607
 20
1353.654661667708
 30
0.0
 41
15.0
 42
15.0
 43
15.0
 50
270.0
  0
INSERT
  5
4D04
330
4B90
100
AcDbEntity
  8
寸法線
 62
     0
 48
3.0
370
    -2
100
AcDbBlockReference
  2
_Open30
 10
1184.39899658607
 20
1348.654661667708
 30
0.0
 41
15.0
 42
15.0
 43
15.0
 50
90.0
  0
MTEXT
  5
4D05
330
4B90
100
AcDbEntity
  8
寸法線
 62
     0
 48
3.0
100
AcDbMText
 10
1164.39899658607
 20
1305.888164205779
 30
0.0
 40
30.0
 41
0.0
 71
     5
 72
     1
  1
5
 11
0.0000000000000001
 21
1.0
 31
0.0
 73
     1
 44
1.0
1001
ACAD
1000
MTEXTBEGIN
1070
    73
1070
     1
1070
    44
1040
1.0
1070
    74
1070
     0
1000
MTEXTEND
  0
POINT
  5
4D06
330
4B90
100
AcDbEntity
  8
Defpoints
 62
     0
 48
3.0
100
AcDbPoint
 10
1071.894372662306
 20
1353.654661667708
 30
0.0
  0
POINT
  5
4D07
330
4B90
100
AcDbEntity
  8
Defpoints
 62
     0
 48
3.0
100
AcDbPoint
 10
1071.894372662306
 20
1348.654661667708
 30
0.0
  0
POINT
  5
4D08
330
4B90
100
AcDbEntity
  8
Defpoints
 62
     0
 48
3.0
100
AcDbPoint
 10
1184.39899658607
 20
1348.654661667708
 30
0.0
  0
ENDBLK
  5
4B92
330
4B90
100
AcDbEntity
  8
0
 48
3.0
100
AcDbBlockEnd
  0
BLOCK
  5
4BE8
330
4BE7
100
AcDbEntity
  8
0
 48
3.0
100
AcDbBlockBegin
  2
*D33
 70
     1
 10
0.0
 20
0.0
 30
0.0
  3
*D33
  1

  0
LINE
  5
4D24
330
4BE7
100
AcDbEntity
  8
寸法線
  6
Continuous
 62
     0
370
    -2
100
AcDbLine
 10
2268.714841642466
 20
1328.654659667708
 30
0.0
 11
2268.714841642466
 21
1253.653743159831
 31
0.0
  0
LINE
  5
4D25
330
4BE7
100
AcDbEntity
  8
寸法線
  6
Continuous
 62
     0
370
    -2
100
AcDbLine
 10
1668.714849642466
 20
1328.654659667708
 30
0.0
 11
1668.714849642466
 21
1253.653743159831
 31
0.0
  0
LINE
  5
4D26
330
4BE7
100
AcDbEntity
  8
寸法線
  6
Continuous
 62
     0
370
    -2
100
AcDbLine
 10
2253.714841642466
 20
1268.653743159831
 30
0.0
 11
1683.714849642466
 21
1268.653743159831
 31
0.0
  0
INSERT
  5
4D27
330
4BE7
100
AcDbEntity
  8
寸法線
  6
Continuous
 62
     0
370
    -2
100
AcDbBlockReference
  2
_Open30
 10
2268.714841642466
 20
1268.653743159831
 30
0.0
 41
15.0
 42
15.0
 43
15.0
  0
INSERT
  5
4D28
330
4BE7
100
AcDbEntity
  8
寸法線
  6
Continuous
 62
     0
370
    -2
100
AcDbBlockReference
  2
_Open30
 10
1668.714849642466
 20
1268.653743159831
 30
0.0
 41
15.0
 42
15.0
 43
15.0
 50
180.0
  0
MTEXT
  5
4D29
330
4BE7
100
AcDbEntity
  8
寸法線
  6
Continuous
 62
     0
100
AcDbMText
 10
1968.714845642466
 20
1288.653743159831
 30
0.0
 40
30.0
 41
0.0
 71
     5
 72
     1
  1
600
 73
     1
 44
1.0
1001
ACAD
1000
MTEXTBEGIN
1070
    73
1070
     1
1070
    44
1040
1.0
1070
    74
1070
     0
1000
MTEXTEND
  0
POINT
  5
4D2A
330
4BE7
100
AcDbEntity
  8
Defpoints
  6
Continuous
 62
     0
100
AcDbPoint
 10
2268.714841642466
 20
1348.654659667708
 30
0.0
  0
POINT
  5
4D2B
330
4BE7
100
AcDbEntity
  8
Defpoints
  6
Continuous
 62
     0
100
AcDbPoint
 10
1668.714849642466
 20
1348.654659667708
 30
0.0
  0
POINT
  5
4D2C
330
4BE7
100
AcDbEntity
  8
Defpoints
  6
Continuous
 62
     0
100
AcDbPoint
 10
1668.714849642466
 20
1268.653743159831
 30
0.0
  0
ENDBLK
  5
4BE9
330
4BE7
100
AcDbEntity
  8
0
 48
3.0
100
AcDbBlockEnd
  0
BLOCK
  5
4C96
330
4C95
100
AcDbEntity
  8
0
 48
3.0
100
AcDbBlockBegin
  2
*D35
 70
     1
 10
0.0
 20
0.0
 30
0.0
  3
*D35
  1

  0
LINE
  5
4D09
330
4C95
100
AcDbEntity
  8
寸法線
  6
Continuous
 62
     0
370
    -2
100
AcDbLine
 10
576.8943726623064
 20
1328.654661667708
 30
0.0
 11
576.8943726623064
 21
1173.654661667708
 31
0.0
  0
LINE
  5
4D0A
330
4C95
100
AcDbEntity
  8
寸法線
  6
Continuous
 62
     0
370
    -2
100
AcDbLine
 10
1071.894372662306
 20
1328.654661667708
 30
0.0
 11
1071.894372662306
 21
1173.654661667708
 31
0.0
  0
LINE
  5
4D0B
330
4C95
100
AcDbEntity
  8
寸法線
  6
Continuous
 62
     0
370
    -2
100
AcDbLine
 10
591.8943726623065
 20
1188.654661667708
 30
0.0
 11
1056.894372662306
 21
1188.654661667708
 31
0.0
  0
INSERT
  5
4D0C
330
4C95
100
AcDbEntity
  8
寸法線
  6
Continuous
 62
     0
370
    -2
100
AcDbBlockReference
  2
_Open30
 10
576.8943726623064
 20
1188.654661667708
 30
0.0
 41
15.0
 42
15.0
 43
15.0
 50
180.0
  0
INSERT
  5
4D0D
330
4C95
100
AcDbEntity
  8
寸法線
  6
Continuous
 62
     0
370
    -2
100
AcDbBlockReference
  2
_Open30
 10
1071.894372662306
 20
1188.654661667708
 30
0.0
 41
15.0
 42
15.0
 43
15.0
  0
MTEXT
  5
4D0E
330
4C95
100
AcDbEntity
  8
寸法線
  6
Continuous
 62
     0
100
AcDbMText
 10
823.3943726623065
 20
1208.654661667708
 30
0.0
 40
30.0
 41
0.0
 71
     5
 72
     1
  1
495
 73
     1
 44
1.0
1001
ACAD
1000
MTEXTBEGIN
1070
    73
1070
     1
1070
    44
1040
1.0
1070
    74
1070
     0
1000
MTEXTEND
  0
POINT
  5
4D0F
330
4C95
100
AcDbEntity
  8
Defpoints
  6
Continuous
 62
     0
100
AcDbPoint
 10
576.8943726623064
 20
1348.654661667708
 30
0.0
  0
POINT
  5
4D10
330
4C95
100
AcDbEntity
  8
Defpoints
  6
Continuous
 62
     0
100
AcDbPoint
 10
1071.894372662306
 20
1348.654661667708
 30
0.0
  0
POINT
  5
4D11
330
4C95
100
AcDbEntity
  8
Defpoints
  6
Continuous
 62
     0
100
AcDbPoint
 10
1071.894372662306
 20
1188.654661667708
 30
0.0
  0
ENDBLK
  5
4C97
330
4C95
100
AcDbEntity
  8
0
 48
3.0
100
AcDbBlockEnd
  0
BLOCK
  5
4D7C
330
4D7B
100
AcDbEntity
  8
0
 48
3.0
100
AcDbBlockBegin
  2
*U36
 70
     1
 10
0.0
 20
0.0
 30
0.0
  3
*U36
  1

  0
LINE
  5
4D82
330
4D7B
100
AcDbEntity
  8
本体
  6
Continuous
100
AcDbLine
 10
-10.5
 20
32.5
 30
0.0
 11
14.5
 21
32.5
 31
0.0
  0
LINE
  5
4D83
330
4D7B
100
AcDbEntity
  8
本体
100
AcDbLine
 10
-15.5
 20
32.5
 30
0.0
 11
-10.5
 21
32.5
 31
0.0
  0
LINE
  5
4D84
330
4D7B
100
AcDbEntity
  8
本体
100
AcDbLine
 10
-10.5
 20
32.5
 30
0.0
 11
-10.5
 21
26.5
 31
0.0
  0
LINE
  5
4D85
330
4D7B
100
AcDbEntity
  8
本体
100
AcDbLine
 10
-10.5
 20
26.5
 30
0.0
 11
-11.5
 21
25.5
 31
0.0
  0
LINE
  5
4D86
330
4D7B
100
AcDbEntity
  8
本体
100
AcDbLine
 10
-15.5
 20
32.5
 30
0.0
 11
-15.5
 21
26.5
 31
0.0
  0
LINE
  5
4D87
330
4D7B
100
AcDbEntity
  8
本体
100
AcDbLine
 10
-15.5
 20
26.5
 30
0.0
 11
-14.5
 21
25.5
 31
0.0
  0
LINE
  5
4D88
330
4D7B
100
AcDbEntity
  8
本体
100
AcDbLine
 10
-15.5
 20
-32.5
 30
0.0
 11
-10.5
 21
-32.5
 31
0.0
  0
LINE
  5
4D89
330
4D7B
100
AcDbEntity
  8
本体
100
AcDbLine
 10
-10.5
 20
-32.5
 30
0.0
 11
-10.5
 21
-26.5
 31
0.0
  0
LINE
  5
4D8A
330
4D7B
100
AcDbEntity
  8
本体
100
AcDbLine
 10
-10.5
 20
-26.5
 30
0.0
 11
-11.5
 21
-25.5
 31
0.0
  0
LINE
  5
4D8B
330
4D7B
100
AcDbEntity
  8
本体
100
AcDbLine
 10
-15.5
 20
-32.5
 30
0.0
 11
-15.5
 21
-26.5
 31
0.0
  0
LINE
  5
4D8C
330
4D7B
100
AcDbEntity
  8
本体
100
AcDbLine
 10
-15.5
 20
-26.5
 30
0.0
 11
-14.5
 21
-25.5
 31
0.0
  0
LINE
  5
4D8D
330
4D7B
100
AcDbEntity
  8
本体
100
AcDbLine
 10
-14.5
 20
25.5
 30
0.0
 11
-14.5
 21
-25.5
 31
0.0
  0
LINE
  5
4D8E
330
4D7B
100
AcDbEntity
  8
本体
100
AcDbLine
 10
-11.5
 20
25.5
 30
0.0
 11
-11.5
 21
-25.5
 31
0.0
  0
LINE
  5
4D8F
330
4D7B
100
AcDbEntity
  8
本体
100
AcDbLine
 10
-15.5
 20
32.5
 30
0.0
 11
-10.5
 21
32.5
 31
0.0
  0
LINE
  5
4D90
330
4D7B
100
AcDbEntity
  8
本体
100
AcDbLine
 10
-10.5
 20
32.5
 30
0.0
 11
-10.5
 21
26.5
 31
0.0
  0
LINE
  5
4D91
330
4D7B
100
AcDbEntity
  8
本体
100
AcDbLine
 10
-10.5
 20
26.5
 30
0.0
 11
-11.5
 21
25.5
 31
0.0
  0
LINE
  5
4D92
330
4D7B
100
AcDbEntity
  8
本体
100
AcDbLine
 10
-15.5
 20
32.5
 30
0.0
 11
-15.5
 21
26.5
 31
0.0
  0
LINE
  5
4D93
330
4D7B
100
AcDbEntity
  8
本体
100
AcDbLine
 10
-15.5
 20
26.5
 30
0.0
 11
-14.5
 21
25.5
 31
0.0
  0
LINE
  5
4D94
330
4D7B
100
AcDbEntity
  8
本体
100
AcDbLine
 10
-15.5
 20
-32.5
 30
0.0
 11
-10.5
 21
-32.5
 31
0.0
  0
LINE
  5
4D95
330
4D7B
100
AcDbEntity
  8
本体
100
AcDbLine
 10
-10.5
 20
-32.5
 30
0.0
 11
-10.5
 21
-26.5
 31
0.0
  0
LINE
  5
4D96
330
4D7B
100
AcDbEntity
  8
本体
100
AcDbLine
 10
-10.5
 20
-26.5
 30
0.0
 11
-11.5
 21
-25.5
 31
0.0
  0
LINE
  5
4D97
330
4D7B
100
AcDbEntity
  8
本体
100
AcDbLine
 10
-15.5
 20
-32.5
 30
0.0
 11
-15.5
 21
-26.5
 31
0.0
  0
LINE
  5
4D98
330
4D7B
100
AcDbEntity
  8
本体
100
AcDbLine
 10
-15.5
 20
-26.5
 30
0.0
 11
-14.5
 21
-25.5
 31
0.0
  0
LINE
  5
4D99
330
4D7B
100
AcDbEntity
  8
本体
100
AcDbLine
 10
-14.5
 20
25.5
 30
0.0
 11
-14.5
 21
-25.5
 31
0.0
  0
LINE
  5
4D9A
330
4D7B
100
AcDbEntity
  8
本体
100
AcDbLine
 10
-11.5
 20
25.5
 30
0.0
 11
-11.5
 21
-25.5
 31
0.0
  0
LINE
  5
4D9B
330
4D7B
100
AcDbEntity
  8
本体
100
AcDbLine
 10
-15.5
 20
32.5
 30
0.0
 11
-10.5
 21
32.5
 31
0.0
  0
LINE
  5
4D9C
330
4D7B
100
AcDbEntity
  8
本体
100
AcDbLine
 10
-10.5
 20
32.5
 30
0.0
 11
-10.5
 21
26.5
 31
0.0
  0
LINE
  5
4D9D
330
4D7B
100
AcDbEntity
  8
本体
100
AcDbLine
 10
-10.5
 20
26.5
 30
0.0
 11
-11.5
 21
25.5
 31
0.0
  0
LINE
  5
4D9E
330
4D7B
100
AcDbEntity
  8
本体
100
AcDbLine
 10
-15.5
 20
32.5
 30
0.0
 11
-15.5
 21
26.5
 31
0.0
  0
LINE
  5
4D9F
330
4D7B
100
AcDbEntity
  8
本体
100
AcDbLine
 10
-15.5
 20
26.5
 30
0.0
 11
-14.5
 21
25.5
 31
0.0
  0
LINE
  5
4DA0
330
4D7B
100
AcDbEntity
  8
本体
100
AcDbLine
 10
-15.5
 20
-32.5
 30
0.0
 11
-10.5
 21
-32.5
 31
0.0
  0
LINE
  5
4DA1
330
4D7B
100
AcDbEntity
  8
本体
100
AcDbLine
 10
-10.5
 20
-32.5
 30
0.0
 11
-10.5
 21
-26.5
 31
0.0
  0
LINE
  5
4DA2
330
4D7B
100
AcDbEntity
  8
本体
100
AcDbLine
 10
-10.5
 20
-26.5
 30
0.0
 11
-11.5
 21
-25.5
 31
0.0
  0
LINE
  5
4DA3
330
4D7B
100
AcDbEntity
  8
本体
100
AcDbLine
 10
-15.5
 20
-32.5
 30
0.0
 11
-15.5
 21
-26.5
 31
0.0
  0
LINE
  5
4DA4
330
4D7B
100
AcDbEntity
  8
本体
100
AcDbLine
 10
-15.5
 20
-26.5
 30
0.0
 11
-14.5
 21
-25.5
 31
0.0
  0
LINE
  5
4DA5
330
4D7B
100
AcDbEntity
  8
本体
100
AcDbLine
 10
-14.5
 20
25.5
 30
0.0
 11
-14.5
 21
-25.5
 31
0.0
  0
LINE
  5
4DA6
330
4D7B
100
AcDbEntity
  8
本体
100
AcDbLine
 10
-11.5
 20
25.5
 30
0.0
 11
-11.5
 21
-25.5
 31
0.0
  0
LINE
  5
4DA7
330
4D7B
100
AcDbEntity
  8
本体
 48
3.0
100
AcDbLine
 10
-11.5
 20
-11.5
 30
0.0
 11
15.5
 21
-11.5
 31
0.0
  0
LINE
  5
4DA8
330
4D7B
100
AcDbEntity
  8
本体
  6
Continuous
100
AcDbLine
 10
-10.5
 20
26.5
 30
0.0
 11
-0.5000000000001137
 21
26.5
 31
0.0
  0
LINE
  5
4DA9
330
4D7B
100
AcDbEntity
  8
本体
  6
Continuous
100
AcDbLine
 10
-10.5
 20
26.5
 30
0.0
 11
-0.5000000000001137
 21
32.5
 31
0.0
  0
LINE
  5
4DAA
330
4D7B
100
AcDbEntity
  8
本体
 48
3.0
100
AcDbLine
 10
4.5
 20
32.5
 30
0.0
 11
4.5
 21
19.5
 31
0.0
  0
LINE
  5
4DAB
330
4D7B
100
AcDbEntity
  8
本体
 48
3.0
100
AcDbLine
 10
4.5
 20
19.5
 30
0.0
 11
-0.5000000000001137
 21
19.5
 31
0.0
  0
LINE
  5
4DAC
330
4D7B
100
AcDbEntity
  8
本体
 48
3.0
100
AcDbLine
 10
-0.5000000000001137
 20
19.5
 30
0.0
 11
-0.5000000000001137
 21
32.5
 31
0.0
  0
LINE
  5
4DAD
330
4D7B
100
AcDbEntity
  8
本体
  6
Continuous
100
AcDbLine
 10
4.5
 20
26.5
 30
0.0
 11
14.5
 21
26.5
 31
0.0
  0
LINE
  5
4DAE
330
4D7B
100
AcDbEntity
  8
本体
  6
Continuous
100
AcDbLine
 10
4.5
 20
26.5
 30
0.0
 11
14.5
 21
32.5
 31
0.0
  0
ENDBLK
  5
4D7D
330
4D7B
100
AcDbEntity
  8
0
 48
3.0
100
AcDbBlockEnd
  0
BLOCK
  5
4D7F
330
4D7E
100
AcDbEntity
  8
0
 48
3.0
100
AcDbBlockBegin
  2
*U37
 70
     1
 10
0.0
 20
0.0
 30
0.0
  3
*U37
  1

  0
INSERT
  5
4DBD
330
4D7E
100
AcDbEntity
  8
寸法線
  6
ByBlock
 62
     0
370
    -2
380
     1
100
AcDbBlockReference
  2
*U36
 10
0.0
 20
0.0
 30
0.0
  0
INSERT
  5
4DBE
330
4D7E
100
AcDbEntity
  8
寸法線
  6
ByBlock
 62
     0
370
    -2
380
     1
100
AcDbBlockReference
  2
*U36
 10
30.0
 20
0.0
 30
0.0
  0
INSERT
  5
4DBF
330
4D7E
100
AcDbEntity
  8
寸法線
  6
ByBlock
 62
     0
370
    -2
380
     1
100
AcDbBlockReference
  2
*U36
 10
60.0
 20
0.0
 30
0.0
  0
INSERT
  5
4DC0
330
4D7E
100
AcDbEntity
  8
寸法線
  6
ByBlock
 62
     0
370
    -2
380
     1
100
AcDbBlockReference
  2
*U36
 10
90.0
 20
0.0
 30
0.0
  0
INSERT
  5
4DC1
330
4D7E
100
AcDbEntity
  8
寸法線
  6
ByBlock
 62
     0
370
    -2
380
     1
100
AcDbBlockReference
  2
*U36
 10
120.0
 20
0.0
 30
0.0
  0
INSERT
  5
4DC2
330
4D7E
100
AcDbEntity
  8
寸法線
  6
ByBlock
 62
     0
370
    -2
380
     1
100
AcDbBlockReference
  2
*U36
 10
150.0
 20
0.0
 30
0.0
  0
INSERT
  5
4DC3
330
4D7E
100
AcDbEntity
  8
寸法線
  6
ByBlock
 62
     0
370
    -2
380
     1
100
AcDbBlockReference
  2
*U36
 10
180.0
 20
0.0
 30
0.0
  0
INSERT
  5
4DC4
330
4D7E
100
AcDbEntity
  8
寸法線
  6
ByBlock
 62
     0
370
    -2
380
     1
100
AcDbBlockReference
  2
*U36
 10
210.0
 20
0.0
 30
0.0
  0
INSERT
  5
4DC5
330
4D7E
100
AcDbEntity
  8
寸法線
  6
ByBlock
 62
     0
370
    -2
380
     1
100
AcDbBlockReference
  2
*U36
 10
240.0
 20
0.0
 30
0.0
  0
INSERT
  5
4DC6
330
4D7E
100
AcDbEntity
  8
寸法線
  6
ByBlock
 62
     0
370
    -2
380
     1
100
AcDbBlockReference
  2
*U36
 10
270.0
 20
0.0
 30
0.0
  0
INSERT
  5
4DC7
330
4D7E
100
AcDbEntity
  8
寸法線
  6
ByBlock
 62
     0
370
    -2
380
     1
100
AcDbBlockReference
  2
*U36
 10
300.0
 20
0.0
 30
0.0
  0
INSERT
  5
4DC8
330
4D7E
100
AcDbEntity
  8
寸法線
  6
ByBlock
 62
     0
370
    -2
380
     1
100
AcDbBlockReference
  2
*U36
 10
330.0
 20
0.0
 30
0.0
  0
INSERT
  5
4DC9
330
4D7E
100
AcDbEntity
  8
寸法線
  6
ByBlock
 62
     0
370
    -2
380
     1
100
AcDbBlockReference
  2
*U36
 10
360.0
 20
0.0
 30
0.0
  0
INSERT
  5
4DCA
330
4D7E
100
AcDbEntity
  8
寸法線
  6
ByBlock
 62
     0
370
    -2
380
     1
100
AcDbBlockReference
  2
*U36
 10
390.0
 20
0.0
 30
0.0
  0
INSERT
  5
4DCB
330
4D7E
100
AcDbEntity
  8
寸法線
  6
ByBlock
 62
     0
370
    -2
380
     1
100
AcDbBlockReference
  2
*U36
 10
420.0
 20
0.0
 30
0.0
  0
INSERT
  5
4DCC
330
4D7E
100
AcDbEntity
  8
寸法線
  6
ByBlock
 62
     0
370
    -2
380
     1
100
AcDbBlockReference
  2
*U36
 10
450.0
 20
0.0
 30
0.0
  0
ENDBLK
  5
4D80
330
4D7E
100
AcDbEntity
  8
0
 48
3.0
100
AcDbBlockEnd
  0
BLOCK
  5
4DCF
330
4DCE
100
AcDbEntity
  8
0
 48
3.0
100
AcDbBlockBegin
  2
*U38
 70
     1
 10
0.0
 20
0.0
 30
0.0
  3
*U38
  1

  0
LINE
  5
4DD5
330
4DCE
100
AcDbEntity
  8
本体
  6
Continuous
100
AcDbLine
 10
-2.5
 20
305.4999999999999
 30
0.0
 11
-2.5
 21
253.0
 31
0.0
  0
LINE
  5
4DD6
330
4DCE
100
AcDbEntity
  8
本体
  6
Continuous
100
AcDbLine
 10
-7.500000000000113
 20
305.4999999999999
 30
0.0
 11
-7.500000000000113
 21
253.0
 31
0.0
  0
LINE
  5
4DD7
330
4DCE
100
AcDbEntity
  8
本体
  6
Continuous
100
AcDbLine
 10
-7.500000000000113
 20
-305.5
 30
0.0
 11
-7.500000000000113
 21
-252.9999999999999
 31
0.0
  0
LINE
  5
4DD8
330
4DCE
100
AcDbEntity
  8
本体
  6
Continuous
100
AcDbLine
 10
-2.5
 20
-305.5
 30
0.0
 11
-2.5
 21
-252.9999999999999
 31
0.0
  0
INSERT
  5
4DD9
330
4DCE
100
AcDbEntity
  8
エンボス
  6
Continuous
100
AcDbBlockReference
  2
A$C61D83440
 10
-7.500000000000113
 20
305.4999999999999
 30
0.0
  0
INSERT
  5
4DDA
330
4DCE
100
AcDbEntity
  8
エンボス
  6
Continuous
100
AcDbBlockReference
  2
A$C61D83440
 10
-7.500000000000113
 20
-252.9999999999999
 30
0.0
  0
INSERT
  5
4DDB
330
4DCE
100
AcDbEntity
  8
エンボス
  6
Continuous
100
AcDbBlockReference
  2
A$C13EC0CC9
 10
-7.500000000000113
 20
247.0
 30
0.0
  0
INSERT
  5
4DDC
330
4DCE
100
AcDbEntity
  8
エンボス
  6
Continuous
100
AcDbBlockReference
  2
A$C13EC0CC9
 10
-7.500000000000113
 20
-152.9999999999999
 30
0.0
  0
LINE
  5
4DDD
330
4DCE
100
AcDbEntity
  8
本体
  6
Continuous
100
AcDbLine
 10
-2.5
 20
247.0
 30
0.0
 11
-2.5
 21
152.9999999999999
 31
0.0
  0
LINE
  5
4DDE
330
4DCE
100
AcDbEntity
  8
本体
  6
Continuous
100
AcDbLine
 10
-7.500000000000113
 20
247.0
 30
0.0
 11
-7.500000000000113
 21
152.9999999999999
 31
0.0
  0
LINE
  5
4DDF
330
4DCE
100
AcDbEntity
  8
本体
  6
Continuous
100
AcDbLine
 10
-2.5
 20
-152.9999999999999
 30
0.0
 11
-2.5
 21
-246.9999999999999
 31
0.0
  0
LINE
  5
4DE0
330
4DCE
100
AcDbEntity
  8
本体
  6
Continuous
100
AcDbLine
 10
-7.500000000000113
 20
-152.9999999999999
 30
0.0
 11
-7.500000000000113
 21
-246.9999999999999
 31
0.0
  0
LINE
  5
4DE1
330
4DCE
100
AcDbEntity
  8
本体
  6
Continuous
100
AcDbLine
 10
-7.500000000000113
 20
147.0
 30
0.0
 11
-7.500000000000113
 21
53.0
 31
0.0
  0
LINE
  5
4DE2
330
4DCE
100
AcDbEntity
  8
本体
  6
Continuous
100
AcDbLine
 10
-2.5
 20
147.0
 30
0.0
 11
-2.5
 21
53.0
 31
0.0
  0
INSERT
  5
4DE3
330
4DCE
100
AcDbEntity
  8
エンボス
  6
Continuous
100
AcDbBlockReference
  2
A$C13EC0CC9
 10
-7.500000000000113
 20
147.0
 30
0.0
  0
INSERT
  5
4DE4
330
4DCE
100
AcDbEntity
  8
エンボス
  6
Continuous
100
AcDbBlockReference
  2
A$C13EC0CC9
 10
-7.500000000000113
 20
47.0
 30
0.0
  0
LINE
  5
4DE5
330
4DCE
100
AcDbEntity
  8
本体
  6
Continuous
100
AcDbLine
 10
-2.5
 20
47.0
 30
0.0
 11
-2.5
 21
-47.0
 31
0.0
  0
LINE
  5
4DE6
330
4DCE
100
AcDbEntity
  8
本体
  6
Continuous
100
AcDbLine
 10
-7.500000000000113
 20
47.0
 30
0.0
 11
-7.500000000000113
 21
-47.0
 31
0.0
  0
LINE
  5
4DE7
330
4DCE
100
AcDbEntity
  8
本体
  6
Continuous
100
AcDbLine
 10
-7.500000000000113
 20
-53.0
 30
0.0
 11
-7.500000000000113
 21
-147.0
 31
0.0
  0
LINE
  5
4DE8
330
4DCE
100
AcDbEntity
  8
本体
  6
Continuous
100
AcDbLine
 10
-2.5
 20
-53.0
 30
0.0
 11
-2.5
 21
-147.0
 31
0.0
  0
INSERT
  5
4DE9
330
4DCE
100
AcDbEntity
  8
エンボス
  6
Continuous
100
AcDbBlockReference
  2
A$C13EC0CC9
 10
-7.500000000000113
 20
-53.0
 30
0.0
  0
LINE
  5
4DEA
330
4DCE
100
AcDbEntity
  8
本体
  6
Continuous
100
AcDbLine
 10
-7.500000000000113
 20
247.0
 30
0.0
 11
7.5
 21
253.0
 31
0.0
  0
LINE
  5
4DEB
330
4DCE
100
AcDbEntity
  8
本体
  6
Continuous
100
AcDbLine
 10
-7.500000000000113
 20
-252.9999999999999
 30
0.0
 11
7.5
 21
-246.9999999999999
 31
0.0
  0
LINE
  5
4DEC
330
4DCE
100
AcDbEntity
  8
本体
  6
Continuous
100
AcDbLine
 10
-7.500000000000113
 20
147.0
 30
0.0
 11
7.5
 21
152.9999999999999
 31
0.0
  0
LINE
  5
4DED
330
4DCE
100
AcDbEntity
  8
本体
  6
Continuous
100
AcDbLine
 10
-7.500000000000113
 20
47.0
 30
0.0
 11
7.5
 21
53.0
 31
0.0
  0
LINE
  5
4DEE
330
4DCE
100
AcDbEntity
  8
本体
  6
Continuous
100
AcDbLine
 10
-7.500000000000113
 20
-53.0
 30
0.0
 11
7.5
 21
-47.0
 31
0.0
  0
LINE
  5
4DEF
330
4DCE
100
AcDbEntity
  8
本体
  6
Continuous
100
AcDbLine
 10
-7.500000000000113
 20
-152.9999999999999
 30
0.0
 11
7.5
 21
-147.0
 31
0.0
  0
ENDBLK
  5
4DD0
330
4DCE
100
AcDbEntity
  8
0
 48
3.0
100
AcDbBlockEnd
  0
BLOCK
  5
4DD2
330
4DD1
100
AcDbEntity
  8
0
 48
3.0
100
AcDbBlockBegin
  2
*U39
 70
     1
 10
0.0
 20
0.0
 30
0.0
  3
*U39
  1

  0
INSERT
  5
4DFA
330
4DD1
100
AcDbEntity
  8
寸法線
  6
ByBlock
 62
     0
370
    -2
380
     1
100
AcDbBlockReference
  2
*U38
 10
0.0
 20
0.0
 30
0.0
  0
INSERT
  5
4DFB
330
4DD1
100
AcDbEntity
  8
寸法線
  6
ByBlock
 62
     0
370
    -2
380
     1
100
AcDbBlockReference
  2
*U38
 10
15.0
 20
0.0
 30
0.0
  0
INSERT
  5
4DFC
330
4DD1
100
AcDbEntity
  8
寸法線
  6
ByBlock
 62
     0
370
    -2
380
     1
100
AcDbBlockReference
  2
*U38
 10
30.0
 20
0.0
 30
0.0
  0
INSERT
  5
4DFD
330
4DD1
100
AcDbEntity
  8
寸法線
  6
ByBlock
 62
     0
370
    -2
380
     1
100
AcDbBlockReference
  2
*U38
 10
45.0
 20
0.0
 30
0.0
  0
INSERT
  5
4DFE
330
4DD1
100
AcDbEntity
  8
寸法線
  6
ByBlock
 62
     0
370
    -2
380
     1
100
AcDbBlockReference
  2
*U38
 10
60.0
 20
0.0
 30
0.0
  0
INSERT
  5
4DFF
330
4DD1
100
AcDbEntity
  8
寸法線
  6
ByBlock
 62
     0
370
    -2
380
     1
100
AcDbBlockReference
  2
*U38
 10
75.0
 20
0.0
 30
0.0
  0
INSERT
  5
4E00
330
4DD1
100
AcDbEntity
  8
寸法線
  6
ByBlock
 62
     0
370
    -2
380
     1
100
AcDbBlockReference
  2
*U38
 10
90.0
 20
0.0
 30
0.0
  0
INSERT
  5
4E01
330
4DD1
100
AcDbEntity
  8
寸法線
  6
ByBlock
 62
     0
370
    -2
380
     1
100
AcDbBlockReference
  2
*U38
 10
105.0
 20
0.0
 30
0.0
  0
INSERT
  5
4E02
330
4DD1
100
AcDbEntity
  8
寸法線
  6
ByBlock
 62
     0
370
    -2
380
     1
100
AcDbBlockReference
  2
*U38
 10
120.0
 20
0.0
 30
0.0
  0
INSERT
  5
4E03
330
4DD1
100
AcDbEntity
  8
寸法線
  6
ByBlock
 62
     0
370
    -2
380
     1
100
AcDbBlockReference
  2
*U38
 10
135.0
 20
0.0
 30
0.0
  0
INSERT
  5
4E04
330
4DD1
100
AcDbEntity
  8
寸法線
  6
ByBlock
 62
     0
370
    -2
380
     1
100
AcDbBlockReference
  2
*U38
 10
150.0
 20
0.0
 30
0.0
  0
INSERT
  5
4E05
330
4DD1
100
AcDbEntity
  8
寸法線
  6
ByBlock
 62
     0
370
    -2
380
     1
100
AcDbBlockReference
  2
*U38
 10
165.0
 20
0.0
 30
0.0
  0
INSERT
  5
4E06
330
4DD1
100
AcDbEntity
  8
寸法線
  6
ByBlock
 62
     0
370
    -2
380
     1
100
AcDbBlockReference
  2
*U38
 10
180.0
 20
0.0
 30
0.0
  0
INSERT
  5
4E07
330
4DD1
100
AcDbEntity
  8
寸法線
  6
ByBlock
 62
     0
370
    -2
380
     1
100
AcDbBlockReference
  2
*U38
 10
195.0
 20
0.0
 30
0.0
  0
INSERT
  5
4E08
330
4DD1
100
AcDbEntity
  8
寸法線
  6
ByBlock
 62
     0
370
    -2
380
     1
100
AcDbBlockReference
  2
*U38
 10
210.0
 20
0.0
 30
0.0
  0
INSERT
  5
4E09
330
4DD1
100
AcDbEntity
  8
寸法線
  6
ByBlock
 62
     0
370
    -2
380
     1
100
AcDbBlockReference
  2
*U38
 10
225.0
 20
0.0
 30
0.0
  0
INSERT
  5
4E0A
330
4DD1
100
AcDbEntity
  8
寸法線
  6
ByBlock
 62
     0
370
    -2
380
     1
100
AcDbBlockReference
  2
*U38
 10
240.0
 20
0.0
 30
0.0
  0
INSERT
  5
4E0B
330
4DD1
100
AcDbEntity
  8
寸法線
  6
ByBlock
 62
     0
370
    -2
380
     1
100
AcDbBlockReference
  2
*U38
 10
255.0
 20
0.0
 30
0.0
  0
INSERT
  5
4E0C
330
4DD1
100
AcDbEntity
  8
寸法線
  6
ByBlock
 62
     0
370
    -2
380
     1
100
AcDbBlockReference
  2
*U38
 10
270.0
 20
0.0
 30
0.0
  0
INSERT
  5
4E0D
330
4DD1
100
AcDbEntity
  8
寸法線
  6
ByBlock
 62
     0
370
    -2
380
     1
100
AcDbBlockReference
  2
*U38
 10
285.0
 20
0.0
 30
0.0
  0
INSERT
  5
4E0E
330
4DD1
100
AcDbEntity
  8
寸法線
  6
ByBlock
 62
     0
370
    -2
380
     1
100
AcDbBlockReference
  2
*U38
 10
300.0
 20
0.0
 30
0.0
  0
INSERT
  5
4E0F
330
4DD1
100
AcDbEntity
  8
寸法線
  6
ByBlock
 62
     0
370
    -2
380
     1
100
AcDbBlockReference
  2
*U38
 10
315.0
 20
0.0
 30
0.0
  0
INSERT
  5
4E10
330
4DD1
100
AcDbEntity
  8
寸法線
  6
ByBlock
 62
     0
370
    -2
380
     1
100
AcDbBlockReference
  2
*U38
 10
330.0
 20
0.0
 30
0.0
  0
INSERT
  5
4E11
330
4DD1
100
AcDbEntity
  8
寸法線
  6
ByBlock
 62
     0
370
    -2
380
     1
100
AcDbBlockReference
  2
*U38
 10
345.0
 20
0.0
 30
0.0
  0
INSERT
  5
4E12
330
4DD1
100
AcDbEntity
  8
寸法線
  6
ByBlock
 62
     0
370
    -2
380
     1
100
AcDbBlockReference
  2
*U38
 10
360.0
 20
0.0
 30
0.0
  0
INSERT
  5
4E13
330
4DD1
100
AcDbEntity
  8
寸法線
  6
ByBlock
 62
     0
370
    -2
380
     1
100
AcDbBlockReference
  2
*U38
 10
375.0
 20
0.0
 30
0.0
  0
INSERT
  5
4E14
330
4DD1
100
AcDbEntity
  8
寸法線
  6
ByBlock
 62
     0
370
    -2
380
     1
100
AcDbBlockReference
  2
*U38
 10
390.0
 20
0.0
 30
0.0
  0
INSERT
  5
4E15
330
4DD1
100
AcDbEntity
  8
寸法線
  6
ByBlock
 62
     0
370
    -2
380
     1
100
AcDbBlockReference
  2
*U38
 10
405.0
 20
0.0
 30
0.0
  0
INSERT
  5
4E16
330
4DD1
100
AcDbEntity
  8
寸法線
  6
ByBlock
 62
     0
370
    -2
380
     1
100
AcDbBlockReference
  2
*U38
 10
420.0
 20
0.0
 30
0.0
  0
INSERT
  5
4E17
330
4DD1
100
AcDbEntity
  8
寸法線
  6
ByBlock
 62
     0
370
    -2
380
     1
100
AcDbBlockReference
  2
*U38
 10
435.0
 20
0.0
 30
0.0
  0
INSERT
  5
4E18
330
4DD1
100
AcDbEntity
  8
寸法線
  6
ByBlock
 62
     0
370
    -2
380
     1
100
AcDbBlockReference
  2
*U38
 10
450.0
 20
0.0
 30
0.0
  0
INSERT
  5
4E19
330
4DD1
100
AcDbEntity
  8
寸法線
  6
ByBlock
 62
     0
370
    -2
380
     1
100
AcDbBlockReference
  2
*U38
 10
465.0
 20
0.0
 30
0.0
  0
ENDBLK
  5
4DD3
330
4DD1
100
AcDbEntity
  8
0
 48
3.0
100
AcDbBlockEnd
  0
ENDSEC
  0
SECTION
  2
ENTITIES
  0
LINE
  5
12
330
2
100
AcDbEntity
  8
外枠
 48
80.0
370
     9
100
AcDbLine
 10
0.0
 20
0.0
 30
0.0
 11
2789.511161023067
 21
0.0
 31
0.0
  0
LINE
  5
13
330
2
100
AcDbEntity
  8
外枠
 48
80.0
370
     9
100
AcDbLine
 10
2789.511161023071
 20
1973.26911249564
 30
0.0
 11
0.0
 21
1973.26911249564
 31
0.0
  0
LINE
  5
14
330
2
100
AcDbEntity
  8
外枠
 48
100.0
370
     9
100
AcDbLine
 10
10.0
 20
10.0
 30
0.0
 11
2780.119625023061
 21
10.0
 31
0.0
  0
LINE
  5
17
330
2
100
AcDbEntity
  8
外枠
  6
Continuous
 48
100.0
370
     9
100
AcDbLine
 10
9.999999999996363
 20
155.399272820803
 30
0.0
 11
2780.119625023061
 21
155.3992728207995
 31
0.0
  0
LINE
  5
18
330
2
100
AcDbEntity
  8
外枠
  6
Continuous
 48
100.0
370
     9
100
AcDbLine
 10
9.999999999996363
 20
160.0950408208045
 30
0.0
 11
2780.119625023061
 21
160.0950408207973
 31
0.0
  0
LINE
  5
19
330
2
100
AcDbEntity
  8
外枠
 48
100.0
370
     9
100
AcDbLine
 10
10.0
 20
1963.877576495633
 30
0.0
 11
2780.119625023053
 21
1963.877576495637
 31
0.0
  0
LINE
  5
1A
330
2
100
AcDbEntity
  8
外枠
 48
80.0
370
     9
100
AcDbLine
 10
0.0
 20
0.0
 30
0.0
 11
0.0
 21
1973.26911249564
 31
0.0
  0
LINE
  5
1B
330
2
100
AcDbEntity
  8
外枠
 48
100.0
370
     9
100
AcDbLine
 10
10.0
 20
1963.877576495633
 30
0.0
 11
10.0
 21
10.0
 31
0.0
  0
LINE
  5
1C
330
2
100
AcDbEntity
  8
外枠
  6
Continuous
 48
100.0
370
     9
100
AcDbLine
 10
10.0
 20
82.69963641040158
 30
0.0
 11
1153.530108552004
 21
82.69963641039794
 31
0.0
  0
MTEXT
  5
1E
330
2
100
AcDbEntity
  8
外枠
  6
Continuous
 48
100.0
370
     9
100
AcDbMText
 10
246.8574963386418
 20
64.81814764649607
 30
0.0
 40
35.0
 41
532.9183
 71
     1
 72
     5
  1
620\U+00D7500\U+00D765/125
 73
     1
 44
1.0
1001
ACAD
1000
MTEXTBEGIN
1070
    73
1070
     1
1070
    44
1040
1.0
1070
    74
1070
     0
1000
MTEXTEND
  0
MTEXT
  5
1F
330
2
100
AcDbEntity
  8
外枠
  6
Continuous
 48
100.0
370
     9
100
AcDbMText
 10
76.61659604009766
 20
137.3760680266387
 30
0.0
 40
30.0
 41
126.3036
 71
     1
 72
     5
  1
T-25
 73
     1
 44
1.0
1001
ACAD
1000
MTEXTBEGIN
1070
    73
1070
     1
1070
    44
1040
1.0
1070
    74
1070
     0
1000
MTEXTEND
  0
MTEXT
  5
20
330
2
100
AcDbEntity
  8
外枠
  6
Continuous
 48
100.0
370
     9
100
AcDbMText
 10
71.54813885537349
 20
65.91002394747921
 30
0.0
 40
35.0
 41
88.86979999999999
 71
     1
 72
     5
  1
VNFJ
 73
     1
 44
1.0
1001
ACAD
1000
MTEXTBEGIN
1070
    73
1070
     1
1070
    44
1040
1.0
1070
    74
1070
     0
1000
MTEXTEND
  0
LINE
  5
21
330
2
100
AcDbEntity
  8
外枠
 48
100.0
370
     9
100
AcDbLine
 10
45.0
 20
155.399272820803
 30
0.0
 11
45.0
 21
10.0
 31
0.0
  0
MTEXT
  5
22
330
2
100
AcDbEntity
  8
外枠
  6
Continuous
 48
100.0
370
     9
100
AcDbMText
 10
15.05670849094895
 20
75.82038473524153
 30
0.0
 40
20.0
 41
23.52947333656417
 71
     1
 72
     5
  1
品\P番
 73
     1
 44
1.0
1001
ACAD
1000
MTEXTBEGIN
1070
    73
1070
     1
1070
    44
1040
1.0
1070
    74
1070
     0
1000
MTEXTEND
  0
MTEXT
  5
23
330
2
100
AcDbEntity
  8
外枠
  6
Continuous
 48
100.0
370
     9
100
AcDbMText
 10
14.92010060012399
 20
149.3317229429121
 30
0.0
 40
20.0
 41
30.07989939987533
 71
     1
 72
     5
  1
荷\P重
 73
     1
 44
1.0
1001
ACAD
1000
MTEXTBEGIN
1070
    73
1070
     1
1070
    44
1040
1.0
1070
    74
1070
     0
1000
MTEXTEND
  0
LINE
  5
24
330
2
100
AcDbEntity
  8
外枠
 48
100.0
370
     9
100
AcDbLine
 10
179.1040495562846
 20
155.399272820803
 30
0.0
 11
179.1040495562846
 21
10.0
 31
0.0
  0
MTEXT
  5
25
330
2
100
AcDbEntity
  8
外枠
  6
Continuous
 48
100.0
370
     9
100
AcDbMText
 10
271.7517807368968
 20
133.8572910967996
 30
0.0
 40
30.0
 41
271.6208
 71
     1
 72
     5
  1
500用
 73
     1
 44
1.0
1001
ACAD
1000
MTEXTBEGIN
1070
    73
1070
     1
1070
    44
1040
1.0
1070
    74
1070
     0
1000
MTEXTEND
  0
MTEXT
  5
26
330
2
100
AcDbEntity
  8
外枠
  6
Continuous
 48
100.0
370
     9
100
AcDbMText
 10
184.4346535744698
 20
149.3074501239389
 30
0.0
 40
20.0
 41
29.6694
 71
     1
 72
     5
  1
溝幅
 73
     1
 44
1.0
1001
ACAD
1000
MTEXTBEGIN
1070
    73
1070
     1
1070
    44
1040
1.0
1070
    74
1070
     0
1000
MTEXTEND
  0
LINE
  5
27
330
2
100
AcDbEntity
  8
外枠
 48
100.0
370
     9
100
AcDbLine
 10
214.1040495562847
 20
155.399272820803
 30
0.0
 11
214.1040495562847
 21
82.69963641040158
 31
0.0
  0
MTEXT
  5
28
330
2
100
AcDbEntity
  8
外枠
  6
Continuous
 48
100.0
370
     9
100
AcDbMText
 10
477.8955451146976
 20
149.3074501239389
 30
0.0
 40
20.0
 41
29.6694
 71
     1
 72
     5
  1
品名
 73
     1
 44
1.0
1001
ACAD
1000
MTEXTBEGIN
1070
    73
1070
     1
1070
    44
1040
1.0
1070
    74
1070
     0
1000
MTEXTEND
  0
LINE
  5
29
330
2
100
AcDbEntity
  8
外枠
 48
100.0
370
     9
100
AcDbLine
 10
472.5649410965123
 20
155.399272820803
 30
0.0
 11
472.5649410965123
 21
82.69963641040158
 31
0.0
  0
LINE
  5
2A
330
2
100
AcDbEntity
  8
外枠
 48
100.0
370
     9
100
AcDbLine
 10
507.5649410965125
 20
155.399272820803
 30
0.0
 11
507.5649410965125
 21
82.69963641040158
 31
0.0
  0
MTEXT
  5
2B
330
2
100
AcDbEntity
  8
外枠
  6
Continuous
 48
100.0
370
     9
100
AcDbMText
 10
728.477887653953
 20
76.92551173516403
 30
0.0
 40
20.0
 41
664.6118999999998
 71
     1
 72
     5
  1
摘\P要
 73
     1
 44
1.0
1001
ACAD
1000
MTEXTBEGIN
1070
    73
1070
     1
1070
    44
1040
1.0
1070
    74
1070
     0
1000
MTEXTEND
  0
LINE
  5
2C
330
2
100
AcDbEntity
  8
外枠
 48
100.0
370
     9
100
AcDbLine
 10
723.828237311587
 20
82.6996364103943
 30
0.0
 11
723.828237311587
 21
9.999999999992724
 31
0.0
  0
LINE
  5
2F
330
2
100
AcDbEntity
  8
外枠
 48
100.0
370
     9
100
AcDbLine
 10
758.828237311587
 20
82.6996364103943
 30
0.0
 11
758.828237311587
 21
9.999999999992724
 31
0.0
  0
LINE
  5
31
330
2
100
AcDbEntity
  8
外枠
 48
100.0
370
     9
100
AcDbLine
 10
974.9513069700951
 20
82.6996364103943
 30
0.0
 11
974.9513069700951
 21
9.999999999992724
 31
0.0
  0
MTEXT
  5
32
330
2
100
AcDbEntity
  8
外枠
  6
Continuous
 48
100.0
370
     9
100
AcDbMText
 10
979.7329598959766
 20
74.84825461820583
 30
0.0
 40
20.0
 41
31.38947761565365
 71
     1
 72
     5
  1
材\P質
 73
     1
 44
1.0
1001
ACAD
1000
MTEXTBEGIN
1070
    73
1070
     1
1070
    44
1040
1.0
1070
    74
1070
     0
1000
MTEXTEND
  0
LINE
  5
33
330
2
100
AcDbEntity
  8
外枠
 48
100.0
370
     9
100
AcDbLine
 10
1009.951306970095
 20
82.6996364103943
 30
0.0
 11
1009.951306970095
 21
9.999999999992724
 31
0.0
  0
LINE
  5
37
330
2
100
AcDbEntity
  8
外枠
 48
80.0
370
     9
100
AcDbLine
 10
2789.511161023067
 20
0.0
 30
0.0
 11
2789.511161023071
 21
1973.26911249564
 31
0.0
  0
LINE
  5
38
330
2
100
AcDbEntity
  8
外枠
 48
100.0
370
     9
100
AcDbLine
 10
2780.119625023053
 20
1963.877576495637
 30
0.0
 11
2780.119625023061
 21
10.0
 31
0.0
  0
LINE
  5
3A
330
2
100
AcDbEntity
  8
外枠
 48
3.0
100
AcDbLine
 10
1607.072254912545
 20
61.67068719952067
 30
0.0
 11
2262.173600934632
 21
61.67068719952067
 31
0.0
  0
MTEXT
  5
3B
330
2
100
AcDbEntity
  8
外枠
  6
Continuous
 48
100.0
370
     9
100
AcDbMText
 10
1683.622173868318
 20
50.71504764095289
 30
0.0
 40
30.00024
 41
539.4827578564582
 71
     1
 72
     5
  1
T A K A R A   G R A T I N G
 73
     1
 44
1.0
1001
ACAD
1000
MTEXTBEGIN
1070
    73
1070
     1
1070
    44
1040
1.0
1070
    74
1070
     0
1000
MTEXTEND
  0
MTEXT
  5
3C
330
2
100
AcDbEntity
  8
外枠
  6
Continuous
 48
100.0
370
     9
100
AcDbMText
 10
1728.02061463669
 20
127.1672938476838
 30
0.0
 40
30.0
 41
282.8297
 71
     1
 72
     5
  1
株 式 会 社
 73
     1
 44
1.0
1001
ACAD
1000
MTEXTBEGIN
1070
    73
1070
     1
1070
    44
1040
1.0
1070
    74
1070
     0
1000
MTEXTEND
  0
LINE
  5
3D
330
2
100
AcDbEntity
  8
外枠
  6
Continuous
 48
100.0
370
     9
100
AcDbLine
 10
1508.680137877982
 20
155.3992728208068
 30
0.0
 11
1508.680137877982
 21
10.00000000000364
 31
0.0
  0
LINE
  5
3E
330
2
100
AcDbEntity
  8
外枠
  6
Continuous
 48
100.0
370
     9
100
AcDbLine
 10
1593.95141853916
 20
155.3992728207995
 30
0.0
 11
1593.95141853916
 21
9.999999999996363
 31
0.0
  0
LINE
  5
3F
330
2
100
AcDbEntity
  8
外枠
  6
Continuous
 48
100.0
370
     9
100
AcDbLine
 10
1616.777813337499
 20
106.634063069062
 30
0.0
 11
1612.463999974505
 21
110.08511375945
 31
0.0
  0
LINE
  5
40
330
2
100
AcDbEntity
  8
外枠
  6
Continuous
 48
100.0
370
     9
100
AcDbLine
 10
1616.777813337499
 20
106.634063069062
 30
0.0
 11
1612.463999974505
 21
103.183012378663
 31
0.0
  0
LINE
  5
41
330
2
100
AcDbEntity
  8
外枠
  6
Continuous
 48
100.0
370
     9
100
AcDbLine
 10
1616.777813337505
 20
113.5361644498489
 30
0.0
 11
1612.463999974505
 21
110.08511375945
 31
0.0
  0
LINE
  5
42
330
2
100
AcDbEntity
  8
外枠
  6
Continuous
 48
100.0
370
     9
100
AcDbLine
 10
1616.777813337499
 20
99.73196168827506
 30
0.0
 11
1612.463999974505
 21
103.183012378663
 31
0.0
  0
MTEXT
  5
43
330
2
100
AcDbEntity
  8
外枠
  6
Continuous
 48
100.0
370
     9
100
AcDbMText
 10
1520.476936402745
 20
137.4995509975779
 30
0.0
 40
20.0
 41
1015.1375
 71
     1
 72
     5
  1
34.5
 73
     1
 44
1.0
1001
ACAD
1000
MTEXTBEGIN
1070
    73
1070
     1
1070
    44
1040
1.0
1070
    74
1070
     0
1000
MTEXTEND
  0
MTEXT
  5
44
330
2
100
AcDbEntity
  8
外枠
  6
Continuous
 48
100.0
370
     9
100
AcDbMText
 10
1568.464698185987
 20
108.4136993179927
 30
0.0
 40
18.0
 41
25.456
 71
     1
 72
     5
  1
kg
 73
     1
 44
1.0
1001
ACAD
1000
MTEXTBEGIN
1070
    73
1070
     1
1070
    44
1040
1.0
1070
    74
1070
     0
1000
MTEXTEND
  0
LINE
  5
45
330
2
100
AcDbEntity
  8
外枠
  6
Continuous
 48
100.0
370
     9
100
AcDbLine
 10
1649.122643507042
 20
139.4120285854742
 30
0.0
 11
1653.436456870031
 21
135.9609778950862
 31
0.0
  0
LINE
  5
46
330
2
100
AcDbEntity
  8
外枠
  6
Continuous
 48
100.0
370
     9
100
AcDbLine
 10
1666.377896959009
 20
139.4120285854742
 30
0.0
 11
1662.06408359602
 21
135.9609778950862
 31
0.0
  0
MTEXT
  5
47
330
2
100
AcDbEntity
  8
外枠
  6
Continuous
 48
100.0
370
     9
100
AcDbMText
 10
1642.840555134189
 20
120.8184913847756
 30
0.0
 40
23.95393639053264
 41
23.85059431815661
 71
     1
 72
     5
  1
{\fＭＳ ゴシック|b0|i0|c128|p49;宝}
 73
     1
 44
1.0
1001
ACAD
1000
MTEXTBEGIN
1070
    73
1070
     1
1070
    44
1040
1.0
1070
    74
1070
     0
1000
MTEXTEND
  0
LINE
  5
48
330
2
100
AcDbEntity
  8
外枠
  6
Continuous
 48
100.0
370
     9
100
AcDbLine
 10
1662.06408359602
 20
135.9609778950862
 30
0.0
 11
1694.408913765557
 21
110.08511375945
 31
0.0
  0
LINE
  5
49
330
2
100
AcDbEntity
  8
外枠
  6
Continuous
 48
100.0
370
     9
100
AcDbLine
 10
1657.750270233026
 20
132.5099272046927
 30
0.0
 11
1690.095100402563
 21
106.634063069062
 31
0.0
  0
LINE
  5
4A
330
2
100
AcDbEntity
  8
外枠
  6
Continuous
 48
100.0
370
     9
100
AcDbLine
 10
1690.095100402563
 20
106.634063069062
 30
0.0
 11
1657.750270233026
 21
80.75819893343123
 31
0.0
  0
LINE
  5
4B
330
2
100
AcDbEntity
  8
外枠
  6
Continuous
 48
100.0
370
     9
100
AcDbLine
 10
1694.408913765557
 20
103.183012378663
 30
0.0
 11
1662.06408359602
 21
77.30714824303777
 31
0.0
  0
LINE
  5
4C
330
2
100
AcDbEntity
  8
外枠
  6
Continuous
 48
100.0
370
     9
100
AcDbLine
 10
1657.750270233026
 20
80.75819893342577
 30
0.0
 11
1625.405440063488
 21
106.634063069062
 31
0.0
  0
LINE
  5
4D
330
2
100
AcDbEntity
  8
外枠
  6
Continuous
 48
100.0
370
     9
100
AcDbLine
 10
1653.436456870031
 20
77.30714824303777
 30
0.0
 11
1621.0916267005
 21
103.183012378663
 31
0.0
  0
LINE
  5
4E
330
2
100
AcDbEntity
  8
外枠
  6
Continuous
 48
100.0
370
     9
100
AcDbLine
 10
1621.0916267005
 20
103.183012378663
 30
0.0
 11
1616.777813337505
 21
99.73196168827506
 31
0.0
  0
LINE
  5
4F
330
2
100
AcDbEntity
  8
外枠
  6
Continuous
 48
100.0
370
     9
100
AcDbLine
 10
1653.436456870031
 20
77.30714824303777
 30
0.0
 11
1649.122643507042
 21
73.85609755263884
 31
0.0
  0
LINE
  5
50
330
2
100
AcDbEntity
  8
外枠
  6
Continuous
 48
100.0
370
     9
100
AcDbLine
 10
1653.436456870031
 20
70.40504686224541
 30
0.0
 11
1649.122643507042
 21
73.85609755263884
 31
0.0
  0
LINE
  5
51
330
2
100
AcDbEntity
  8
外枠
  6
Continuous
 48
100.0
370
     9
100
AcDbLine
 10
1657.750270233026
 20
73.85609755263884
 30
0.0
 11
1653.436456870031
 21
70.40504686224541
 31
0.0
  0
LINE
  5
52
330
2
100
AcDbEntity
  8
外枠
  6
Continuous
 48
100.0
370
     9
100
AcDbLine
 10
1666.377896959009
 20
73.85609755263884
 30
0.0
 11
1662.06408359602
 21
70.40504686224541
 31
0.0
  0
LINE
  5
53
330
2
100
AcDbEntity
  8
外枠
  6
Continuous
 48
100.0
370
     9
100
AcDbLine
 10
1662.06408359602
 20
70.40504686224541
 30
0.0
 11
1657.750270233026
 21
73.85609755263884
 31
0.0
  0
LINE
  5
54
330
2
100
AcDbEntity
  8
外枠
  6
Continuous
 48
100.0
370
     9
100
AcDbLine
 10
1666.377896959009
 20
73.85609755263884
 30
0.0
 11
1662.06408359602
 21
77.30714824303777
 31
0.0
  0
LINE
  5
55
330
2
100
AcDbEntity
  8
外枠
  6
Continuous
 48
100.0
370
     9
100
AcDbLine
 10
1657.750270233026
 20
132.5099272046927
 30
0.0
 11
1625.405440063483
 21
106.634063069062
 31
0.0
  0
LINE
  5
56
330
2
100
AcDbEntity
  8
外枠
  6
Continuous
 48
100.0
370
     9
100
AcDbLine
 10
1653.436456870031
 20
135.9609778950862
 30
0.0
 11
1621.0916267005
 21
110.08511375945
 31
0.0
  0
LINE
  5
57
330
2
100
AcDbEntity
  8
外枠
  6
Continuous
 48
100.0
370
     9
100
AcDbLine
 10
1621.0916267005
 20
110.08511375945
 30
0.0
 11
1616.777813337505
 21
113.5361644498489
 31
0.0
  0
LINE
  5
58
330
2
100
AcDbEntity
  8
外枠
  6
Continuous
 48
100.0
370
     9
100
AcDbLine
 10
1694.408913765557
 20
103.183012378663
 30
0.0
 11
1698.722727128541
 21
99.73196168827506
 31
0.0
  0
LINE
  5
59
330
2
100
AcDbEntity
  8
外枠
  6
Continuous
 48
100.0
370
     9
100
AcDbLine
 10
1703.036540491541
 20
103.183012378663
 30
0.0
 11
1698.722727128541
 21
99.73196168827506
 31
0.0
  0
LINE
  5
5A
330
2
100
AcDbEntity
  8
外枠
  6
Continuous
 48
100.0
370
     9
100
AcDbLine
 10
1698.722727128541
 20
113.5361644498489
 30
0.0
 11
1694.408913765557
 21
110.08511375945
 31
0.0
  0
LINE
  5
5B
330
2
100
AcDbEntity
  8
外枠
  6
Continuous
 48
100.0
370
     9
100
AcDbLine
 10
1698.722727128541
 20
106.634063069062
 30
0.0
 11
1703.036540491541
 21
103.183012378663
 31
0.0
  0
LINE
  5
5C
330
2
100
AcDbEntity
  8
外枠
  6
Continuous
 48
100.0
370
     9
100
AcDbLine
 10
1698.722727128541
 20
113.5361644498489
 30
0.0
 11
1703.036540491541
 21
110.08511375945
 31
0.0
  0
LINE
  5
5D
330
2
100
AcDbEntity
  8
外枠
  6
Continuous
 48
100.0
370
     9
100
AcDbLine
 10
1703.036540491541
 20
110.08511375945
 30
0.0
 11
1698.722727128541
 21
106.634063069062
 31
0.0
  0
LINE
  5
5E
330
2
100
AcDbEntity
  8
外枠
  6
Continuous
 48
100.0
370
     9
100
AcDbLine
 10
1653.436456870031
 20
142.8630792758676
 30
0.0
 11
1649.122643507042
 21
139.4120285854742
 31
0.0
  0
LINE
  5
5F
330
2
100
AcDbEntity
  8
外枠
  6
Continuous
 48
100.0
370
     9
100
AcDbLine
 10
1662.06408359602
 20
142.8630792758676
 30
0.0
 11
1666.377896959009
 21
139.4120285854742
 31
0.0
  0
LINE
  5
60
330
2
100
AcDbEntity
  8
外枠
  6
Continuous
 48
100.0
370
     9
100
AcDbLine
 10
1653.436456870031
 20
142.8630792758676
 30
0.0
 11
1657.750270233026
 21
139.4120285854742
 31
0.0
  0
LINE
  5
61
330
2
100
AcDbEntity
  8
外枠
  6
Continuous
 48
100.0
370
     9
100
AcDbLine
 10
1662.06408359602
 20
142.8630792758676
 30
0.0
 11
1657.750270233026
 21
139.4120285854742
 31
0.0
  0
MTEXT
  5
62
330
2
100
AcDbEntity
  8
外枠
  6
Continuous
 48
100.0
370
     9
100
AcDbMText
 10
1982.246612759803
 20
141.5312822365363
 30
0.0
 40
50.0
 41
269.1378
 71
     1
 72
     5
  1
宝 機 材
 73
     1
 44
1.0
1001
ACAD
1000
MTEXTBEGIN
1070
    73
1070
     1
1070
    44
1040
1.0
1070
    74
1070
     0
1000
MTEXTEND
  0
LINE
  5
AB
330
2
100
AcDbEntity
  8
外枠
  6
Continuous
 48
100.0
370
     9
100
AcDbLine
 10
2694.775480668144
 20
78.59726492113622
 30
0.0
 11
2729.639779322774
 21
43.732966266507
 31
0.0
  0
LINE
  5
AC
330
2
100
AcDbEntity
  8
外枠
  6
Continuous
 48
100.0
370
     9
100
AcDbLine
 10
2729.639779322774
 20
113.4615635757691
 30
0.0
 11
2694.775480668144
 21
78.59726492113622
 31
0.0
  0
LINE
  5
AE
330
2
100
AcDbEntity
  8
外枠
  6
Continuous
 48
100.0
370
     9
100
AcDbLine
 10
2271.730765417811
 20
155.3992728207995
 30
0.0
 11
2271.730765417811
 21
10.0
 31
0.0
  0
LINE
  5
AF
330
2
100
AcDbEntity
  8
外枠
  6
Continuous
 48
100.0
370
     9
100
AcDbLine
 10
2387.385592047314
 20
155.3992728207995
 30
0.0
 11
2387.385592047314
 21
9.999999999996363
 31
0.0
  0
MTEXT
  5
B0
330
2
100
AcDbEntity
  8
外枠
  6
Continuous
 48
100.0
370
     9
100
AcDbMText
 10
2518.897970034654
 20
80.52451510381798
 30
0.0
 40
16.435188
 41
274.138099993296
 71
     1
 72
     5
  1
縮尺（A4用紙)
 73
     1
 44
1.0
1001
ACAD
1000
MTEXTBEGIN
1070
    73
1070
     1
1070
    44
1040
1.0
1070
    74
1070
     0
1000
MTEXTEND
  0
LINE
  5
B1
330
2
100
AcDbEntity
  8
外枠
  6
Continuous
 48
100.0
370
     9
100
AcDbLine
 10
2503.04041867681
 20
155.3992728207995
 30
0.0
 11
2503.04041867681
 21
9.999999999996363
 31
0.0
  0
LINE
  5
B2
330
2
100
AcDbEntity
  8
外枠
  6
Continuous
 48
100.0
370
     9
100
AcDbLine
 10
2676.662359028593
 20
155.3992728207995
 30
0.0
 11
2676.662359028593
 21
10.0
 31
0.0
  0
MTEXT
  5
B3
330
2
100
AcDbEntity
  8
外枠
  6
Continuous
 48
100.0
370
     9
100
AcDbMText
 10
2557.587330290393
 20
42.2416190518379
 30
0.0
 40
23.47884
 41
274.138099993296
 71
     1
 72
     5
  1
1：10
 73
     1
 44
1.0
1001
ACAD
1000
MTEXTBEGIN
1070
    73
1070
     1
1070
    44
1040
1.0
1070
    74
1070
     0
1000
MTEXTEND
  0
MTEXT
  5
B4
330
2
100
AcDbEntity
  8
外枠
  6
Continuous
 48
100.0
370
     9
100
AcDbMText
 10
2280.290404386422
 20
149.5129012429788
 30
0.0
 40
18.783072
 41
274.13809060176
 71
     1
 72
     5
  1
Check
 73
     1
 44
1.0
1001
ACAD
1000
MTEXTBEGIN
1070
    73
1070
     1
1070
    44
1040
1.0
1070
    74
1070
     0
1000
MTEXTEND
  0
MTEXT
  5
B5
330
2
100
AcDbEntity
  8
外枠
  6
Continuous
 48
100.0
370
     9
100
AcDbMText
 10
2398.03460165154
 20
149.5129012429788
 30
0.0
 40
18.783072
 41
274.13809060176
 71
     1
 72
     5
  1
Draw
 73
     1
 44
1.0
1001
ACAD
1000
MTEXTBEGIN
1070
    73
1070
     1
1070
    44
1040
1.0
1070
    74
1070
     0
1000
MTEXTEND
  0
LINE
  5
B7
330
2
100
AcDbEntity
  8
外枠
  6
Continuous
 48
100.0
370
     9
100
AcDbLine
 10
2676.662359028593
 20
85.04752041039683
 30
0.0
 11
2503.04041867681
 21
85.04752041039683
 31
0.0
  0
MTEXT
  5
B8
330
2
100
AcDbEntity
  8
外枠
  6
Continuous
 48
100.0
370
     9
100
AcDbMText
 10
2518.897970034654
 20
153.7304166203976
 30
0.0
 40
16.435188
 41
274.138099993296
 71
     1
 72
     5
  1
図面作成日
 73
     1
 44
1.0
1001
ACAD
1000
MTEXTBEGIN
1070
    73
1070
     1
1070
    44
1040
1.0
1070
    74
1070
     0
1000
MTEXTEND
  0
LINE
  5
BA
330
2
100
AcDbEntity
  8
外枠
  6
Continuous
 48
100.0
370
     9
100
AcDbLine
 10
2729.639779322774
 20
43.732966266507
 30
0.0
 11
2764.504077977397
 21
78.59726492113622
 31
0.0
  0
LINE
  5
BB
330
2
100
AcDbEntity
  8
外枠
  6
Continuous
 48
100.0
370
     9
100
AcDbLine
 10
2764.504077977397
 20
78.59726492113622
 30
0.0
 11
2729.639779322774
 21
113.4615635757691
 31
0.0
  0
LINE
  5
D3
330
2
100
AcDbEntity
  8
本体
  6
Continuous
100
AcDbLine
 10
2272.714850642465
 20
1473.654661667708
 30
0.0
 11
2272.714850642465
 21
1408.654661667708
 31
0.0
  0
LINE
  5
D4
330
2
100
AcDbEntity
  8
本体
  6
Continuous
100
AcDbLine
 10
2272.714850642465
 20
1429.654661667708
 30
0.0
 11
2275.714850642466
 21
1429.654661667708
 31
0.0
  0
LINE
  5
D5
330
2
100
AcDbEntity
  8
本体
  6
Continuous
100
AcDbLine
 10
2275.714850642466
 20
1429.654661667708
 30
0.0
 11
2278.714850642466
 21
1473.654661667708
 31
0.0
  0
LINE
  5
D6
330
2
100
AcDbEntity
  8
本体
  6
Continuous
100
AcDbLine
 10
1664.714850642466
 20
1473.654661667708
 30
0.0
 11
1664.714850642466
 21
1408.654661667708
 31
0.0
  0
LINE
  5
D7
330
2
100
AcDbEntity
  8
本体
  6
Continuous
100
AcDbLine
 10
1661.714850642466
 20
1429.654661667708
 30
0.0
 11
1658.714850642466
 21
1473.654661667708
 31
0.0
  0
LINE
  5
D8
330
2
100
AcDbEntity
  8
本体
  6
Continuous
100
AcDbLine
 10
1658.714850642466
 20
1473.654661667708
 30
0.0
 11
2278.714850642466
 21
1473.654661667708
 31
0.0
  0
LINE
  5
D9
330
2
100
AcDbEntity
  8
本体
  6
Continuous
100
AcDbLine
 10
1664.714850642466
 20
1429.654661667708
 30
0.0
 11
1661.714850642466
 21
1429.654661667708
 31
0.0
  0
LINE
  5
DB
330
2
100
AcDbEntity
  8
本体
  6
Continuous
100
AcDbLine
 10
2272.714850642465
 20
1408.654661667708
 30
0.0
 11
1664.714850642466
 21
1408.654661667708
 31
0.0
  0
LINE
  5
DC
330
2
100
AcDbEntity
  8
本体
  6
Continuous
100
AcDbLine
 10
2272.714850642465
 20
1467.654661667708
 30
0.0
 11
1664.714850642466
 21
1467.654661667708
 31
0.0
  0
LINE
  5
DD
330
2
100
AcDbEntity
  8
本体
  6
Continuous
100
AcDbLine
 10
2272.714850642465
 20
1414.654661667708
 30
0.0
 11
1664.714850642466
 21
1414.654661667708
 31
0.0
  0
LEADER
  5
DE
330
2
100
AcDbEntity
  8
寸法線
  6
Continuous
100
AcDbLeader
  3
ISO-25
 73
     0
 74
     0
 75
     1
 40
30.0
 41
229.7969543147208
 76
     3
 10
1072.894372662306
 20
801.8243374198851
 30
0.0
 10
1102.06835007168
 20
857.0237660797372
 30
0.0
 10
1117.06835007168
 20
857.0237660797372
 30
0.0
340
E5
1001
ACAD
1000
DSTYLE
1002
{
1070
     5
1000
OPEN30
1070
    77
1070
     1
1070
   147
1040
0.5
1002
}
  0
MTEXT
  5
E5
102
{ACAD_REACTORS
330
DE
102
}
330
2
100
AcDbEntity
  8
寸法線
  6
Continuous
100
AcDbMText
 10
1122.06835007168
 20
862.0237660797375
 30
0.0
 40
30.0
 41
0.0
 71
     7
 72
     1
  1
HGIB5\U+00D73\U+00D765
 73
     1
 44
1.0
1001
ACAD
1000
MTEXTBEGIN
1070
    73
1070
     1
1070
    44
1040
1.0
1070
    74
1070
     0
1000
MTEXTEND
  0
LEADER
  5
E7
330
2
100
AcDbEntity
  8
寸法線
  6
Continuous
100
AcDbLeader
  3
ISO-25
 73
     0
 74
     0
 75
     1
 40
30.0
 41
35.78680203045685
 76
     3
 10
1074.394372662306
 20
568.5322567502756
 30
0.0
 10
1122.575750781191
 20
639.2429348689305
 30
0.0
 10
1137.575750781191
 20
639.2429348689305
 30
0.0
340
E8
1001
ACAD
1000
DSTYLE
1002
{
1070
     5
1000
OPEN30
1070
    77
1070
     1
1070
   147
1040
0.5
1002
}
  0
MTEXT
  5
E8
102
{ACAD_REACTORS
330
E7
102
}
330
2
100
AcDbEntity
  8
寸法線
  6
Continuous
100
AcDbMText
 10
1142.575750781191
 20
644.2429348689305
 30
0.0
 40
30.0
 41
0.0
 71
     7
 72
     1
  1
TB
 73
     1
 44
1.0
1001
ACAD
1000
MTEXTBEGIN
1070
    73
1070
     1
1070
    44
1040
1.0
1070
    74
1070
     0
1000
MTEXTEND
  0
DIMENSION
  5
F9
330
2
100
AcDbEntity
  8
寸法線
  6
Continuous
100
AcDbDimension
  2
*D8
 10
2118.714850642466
 20
1553.658331716341
 30
0.0
 11
2168.714850642466
 21
1573.658331716341
 31
0.0
 70
    32
 71
     5
 42
100.0
  3
ISO-25
100
AcDbAlignedDimension
 13
2218.714850642466
 23
1473.654661667708
 33
0.0
 14
2118.714850642466
 24
1473.654661667708
 34
0.0
100
AcDbRotatedDimension
  0
DIMENSION
  5
106
330
2
100
AcDbEntity
  8
寸法線
  6
Continuous
100
AcDbDimension
  2
*D9
 10
1658.714850642466
 20
1633.662083599688
 30
0.0
 11
1968.714850642465
 21
1653.662083599688
 31
0.0
 70
    32
 71
     5
 42
619.9999999999997
  3
ISO-25
100
AcDbAlignedDimension
 13
2278.714850642466
 23
1473.654661667708
 33
0.0
 14
1658.714850642466
 24
1473.654661667708
 34
0.0
100
AcDbRotatedDimension
  0
LEADER
  5
120
330
2
100
AcDbEntity
  8
寸法線
  6
Continuous
100
AcDbLeader
  3
ISO-25
 73
     0
 74
     0
 75
     1
 40
36.39593908629441
 41
132.9441624365482
 76
     3
 10
1027.422024885459
 20
929.324337419885
 30
0.0
 10
1083.132703004114
 20
1030.044706326909
 30
0.0
 10
1098.132703004114
 20
1030.044706326909
 30
0.0
340
121
1001
ACAD
1000
DSTYLE
1002
{
1070
     5
1000
OPEN30
1070
    77
1070
     1
1070
   147
1040
0.5
1002
}
  0
MTEXT
  5
121
102
{ACAD_REACTORS
330
120
102
}
330
2
100
AcDbEntity
  8
寸法線
  6
Continuous
100
AcDbMText
 10
1103.132703004114
 20
1035.044706326909
 30
0.0
 40
30.0
 41
0.0
 71
     7
 72
     1
  1
6/3\U+00D744
 73
     1
 44
1.0
1001
ACAD
1000
MTEXTBEGIN
1070
    73
1070
     1
1070
    44
1040
1.0
1070
    74
1070
     0
1000
MTEXTEND
  0
INSERT
  5
20C
330
2
100
AcDbEntity
  8
本体
  6
Continuous
100
AcDbBlockReference
  2
TB6
 10
2218.714850642466
 20
1473.654661667708
 30
0.0
 50
270.0
  0
INSERT
  5
215
330
2
100
AcDbEntity
  8
本体
  6
Continuous
100
AcDbBlockReference
  2
TB6
 10
2118.714850642466
 20
1473.654661667708
 30
0.0
 50
270.0
  0
INSERT
  5
216
330
2
100
AcDbEntity
  8
本体
  6
Continuous
100
AcDbBlockReference
  2
TB6
 10
1718.714850642466
 20
1473.654661667708
 30
0.0
 50
270.0
  0
INSERT
  5
2D1
330
2
100
AcDbEntity
  8
本体
  6
Continuous
100
AcDbBlockReference
  2
TB6
 10
1818.714850642466
 20
1473.654661667708
 30
0.0
 50
270.0
  0
MTEXT
  5
6E8
330
2
100
AcDbEntity
  8
外枠
  6
Continuous
 48
100.0
370
     9
100
AcDbMText
 10
1022.175868508384
 20
76.77806813642067
 30
0.0
 40
18.0
 41
122.0406
 71
     1
 72
     5
  1
【主部材】
 73
     1
 44
1.0
1001
ACAD
1000
MTEXTBEGIN
1070
    73
1070
     1
1070
    44
1040
1.0
1070
    74
1070
     0
1000
MTEXTEND
  0
MTEXT
  5
6EA
330
2
100
AcDbEntity
  8
外枠
  6
Continuous
 48
100.0
370
     9
100
AcDbMText
 10
1202.677957061338
 20
120.1377642323778
 30
0.0
 40
25.0
 41
1015.1375
 71
     1
 72
     5
  1
溶融亜鉛めっき仕上
 73
     1
 44
1.0
1001
ACAD
1000
MTEXTBEGIN
1070
    73
1070
     1
1070
    44
1040
1.0
1070
    74
1070
     0
1000
MTEXTEND
  0
MTEXT
  5
6EB
330
2
100
AcDbEntity
  8
外枠
  6
Continuous
 48
100.0
370
     9
100
AcDbMText
 10
1199.744421021769
 20
150.249876205782
 30
0.0
 40
18.0
 41
301.8661
 71
     1
 72
     5
  1
【グレーチング】JIS　H8641
 73
     1
 44
1.0
1001
ACAD
1000
MTEXTBEGIN
1070
    73
1070
     1
1070
    44
1040
1.0
1070
    74
1070
     0
1000
MTEXTEND
  0
MTEXT
  5
6EC
330
2
100
AcDbEntity
  8
外枠
  6
Continuous
 48
100.0
370
     9
100
AcDbMText
 10
1159.385398923399
 20
148.6111115828462
 30
0.0
 40
20.0
 41
1015.1375
 71
     1
 72
     5
  1
表\P面\P処\P理
 73
     1
 44
1.0
1001
ACAD
1000
MTEXTBEGIN
1070
    73
1070
     1
1070
    44
1040
1.0
1070
    74
1070
     0
1000
MTEXTEND
  0
LINE
  5
6ED
330
2
100
AcDbEntity
  8
外枠
  6
Continuous
 48
100.0
370
     9
100
AcDbLine
 10
1188.531791166651
 20
155.3992728207959
 30
0.0
 11
1188.531791166651
 21
9.999999999992724
 31
0.0
  0
LINE
  5
6EE
330
2
100
AcDbEntity
  8
外枠
  6
Continuous
 48
100.0
370
     9
100
AcDbLine
 10
1153.531306970095
 20
155.3992728207959
 30
0.0
 11
1153.531306970095
 21
9.999999999992724
 31
0.0
  0
LINE
  5
6EF
330
2
100
AcDbEntity
  8
外枠
 48
3.0
100
AcDbLine
 10
1188.531791166651
 20
82.6996364103943
 30
0.0
 11
1593.951336296073
 21
82.6996364103943
 31
0.0
  0
INSERT
  5
C95
330
2
100
AcDbEntity
  8
本体
 48
3.0
100
AcDbBlockReference
  2
HGIB詳細
 10
2762.513997685368
 20
180.4805899928656
 30
0.0
  0
INSERT
  5
CAE
330
2
100
AcDbEntity
  8
本体
  6
Continuous
100
AcDbBlockReference
  2
TB6
 10
2018.714850642466
 20
1473.654661667708
 30
0.0
 50
270.0
  0
MTEXT
  5
13A5
330
2
100
AcDbEntity
  8
外枠
  6
Continuous
 48
100.0
370
     9
100
AcDbMText
 10
2509.985545378613
 20
121.2206105686568
 30
0.0
 40
23.47884
 41
274.1381
 71
     1
 72
     5
  1
'14・12・04
 73
     1
 44
1.0
1001
ACAD
1000
MTEXTBEGIN
1070
    73
1070
     1
1070
    44
1040
1.0
1070
    74
1070
     0
1000
MTEXTEND
  0
MTEXT
  5
13A6
330
2
100
AcDbEntity
  8
外枠
  6
Continuous
 48
100.0
370
     9
100
AcDbMText
 10
1038.975343934131
 20
43.78169995529471
 30
0.0
 40
25.0
 41
122.0406
 71
     1
 72
     5
  1
SS540
 73
     1
 44
1.0
1001
ACAD
1000
MTEXTBEGIN
1070
    73
1070
     1
1070
    44
1040
1.0
1070
    74
1070
     0
1000
MTEXTEND
  0
INSERT
  5
148E
330
2
100
AcDbEntity
  8
本体
  6
Continuous
100
AcDbBlockReference
  2
TB6
 10
1918.714850642466
 20
1473.654661667708
 30
0.0
 50
270.0
  0
INSERT
  5
14A6
330
2
100
AcDbEntity
  8
寸法線
 48
3.0
100
AcDbBlockReference
  2
清水
 10
2387.385592047314
 20
155.3992728207995
 30
0.0
  0
LINE
  5
230C
330
2
100
AcDbEntity
  8
本体
  6
Continuous
100
AcDbLine
 10
574.3943726623065
 20
929.324337419885
 30
0.0
 11
1074.394372662306
 21
929.324337419885
 31
0.0
  0
LINE
  5
230D
330
2
100
AcDbEntity
  8
本体
  6
Continuous
100
AcDbLine
 10
574.3943726623065
 20
924.824337419885
 30
0.0
 11
1074.394372662306
 21
924.824337419885
 31
0.0
  0
LINE
  5
230E
330
2
100
AcDbEntity
  8
本体
  6
Continuous
100
AcDbLine
 10
574.3943726623065
 20
872.3243374198851
 30
0.0
 11
1074.394372662306
 21
872.3243374198851
 31
0.0
  0
LINE
  5
230F
330
2
100
AcDbEntity
  8
本体
  6
Continuous
100
AcDbLine
 10
574.3943726623065
 20
866.3243374198851
 30
0.0
 11
1074.394372662306
 21
866.3243374198851
 31
0.0
  0
LINE
  5
2314
330
2
100
AcDbEntity
  8
本体
  6
Continuous
100
AcDbLine
 10
574.3943726623065
 20
866.3243374198851
 30
0.0
 11
589.3943726623064
 21
872.3243374198851
 31
0.0
  0
LINE
  5
231D
330
2
100
AcDbEntity
  8
嵩上断面
  6
Continuous
100
AcDbLine
 10
1071.894372662306
 20
1408.654661667708
 30
0.0
 11
576.8943726623064
 21
1408.654661667708
 31
0.0
  0
LINE
  5
231E
330
2
100
AcDbEntity
  8
嵩上断面
  6
HIDDEN
 48
2.0
100
AcDbLine
 10
1071.894372662306
 20
1405.454661667708
 30
0.0
 11
576.8943726623064
 21
1405.454661667708
 31
0.0
  0
LINE
  5
2321
330
2
100
AcDbEntity
  8
本体
  6
Continuous
100
AcDbLine
 10
579.3943726623065
 20
924.824337419885
 30
0.0
 11
579.3943726623065
 21
872.3243374198851
 31
0.0
  0
LINE
  5
2322
330
2
100
AcDbEntity
  8
本体
  6
Continuous
100
AcDbLine
 10
579.3943726623065
 20
866.3243374198851
 30
0.0
 11
579.3943726623065
 21
772.3243374198849
 31
0.0
  0
LINE
  5
2324
330
2
100
AcDbEntity
  8
本体
  6
Continuous
100
AcDbLine
 10
574.3943726623065
 20
313.8243374198851
 30
0.0
 11
1074.394372662306
 21
313.8243374198851
 31
0.0
  0
LINE
  5
2325
330
2
100
AcDbEntity
  8
本体
  6
Continuous
100
AcDbLine
 10
574.3943726623065
 20
309.3243374198851
 30
0.0
 11
1074.394372662306
 21
309.3243374198851
 31
0.0
  0
LINE
  5
2327
330
2
100
AcDbEntity
  8
本体
  6
Continuous
100
AcDbLine
 10
579.3943726623065
 20
313.8243374198851
 30
0.0
 11
579.3943726623065
 21
366.3243374198851
 31
0.0
  0
LINE
  5
2328
330
2
100
AcDbEntity
  8
本体
  6
Continuous
100
AcDbLine
 10
574.3943726623065
 20
309.3243374198851
 30
0.0
 11
574.3943726623065
 21
929.324337419885
 31
0.0
  0
DIMENSION
  5
2329
330
2
100
AcDbEntity
  8
寸法線
  6
Continuous
100
AcDbDimension
  2
*D24
 10
1074.394372662306
 20
1633.656144393191
 30
0.0
 11
824.3943726623065
 21
1653.656144393191
 31
0.0
 70
    32
 71
     5
 42
500.0
  3
ISO-25
100
AcDbAlignedDimension
 13
574.3943726623065
 23
1473.654661667708
 33
0.0
 14
1074.394372662306
 24
1473.654661667708
 34
0.0
100
AcDbRotatedDimension
  0
DIMENSION
  5
232A
330
2
100
AcDbEntity
  8
寸法線
  6
Continuous
100
AcDbDimension
  2
*D25
 10
1184.394372662306
 20
1473.654661667708
 30
0.0
 11
1164.394372662306
 21
1441.154661667708
 31
0.0
 70
    32
 71
     5
 42
65.0
  3
ISO-25
100
AcDbAlignedDimension
 13
1071.894372662306
 23
1408.654661667708
 33
0.0
 14
1071.894372662306
 24
1473.654661667708
 34
0.0
 50
90.0
100
AcDbRotatedDimension
  0
INSERT
  5
232C
330
2
100
AcDbEntity
  8
エンボス
  6
Continuous
100
AcDbBlockReference
  2
A$C61D83440
 10
574.3943726623065
 20
924.824337419885
 30
0.0
  0
INSERT
  5
232D
330
2
100
AcDbEntity
  8
エンボス
  6
Continuous
100
AcDbBlockReference
  2
A$C61D83440
 10
574.3943726623065
 20
366.3243374198851
 30
0.0
  0
INSERT
  5
232E
330
2
100
AcDbEntity
  8
エンボス
  6
Continuous
100
AcDbBlockReference
  2
A$C13EC0CC9
 10
574.3943726623065
 20
866.3243374198851
 30
0.0
  0
INSERT
  5
232F
330
2
100
AcDbEntity
  8
エンボス
  6
Continuous
100
AcDbBlockReference
  2
A$C61D83440
 10
1069.394372662306
 20
924.824337419885
 30
0.0
  0
INSERT
  5
2330
330
2
100
AcDbEntity
  8
エンボス
  6
Continuous
100
AcDbBlockReference
  2
A$C13EC0CC9
 10
1069.394372662306
 20
866.3243374198851
 30
0.0
  0
INSERT
  5
2331
330
2
100
AcDbEntity
  8
エンボス
  6
Continuous
100
AcDbBlockReference
  2
A$C61D83440
 10
1069.394372662306
 20
366.3243374198851
 30
0.0
  0
LINE
  5
2332
330
2
100
AcDbEntity
  8
本体
  6
Continuous
100
AcDbLine
 10
574.3943726623065
 20
372.3243374198851
 30
0.0
 11
1074.394372662306
 21
372.3243374198851
 31
0.0
  0
LINE
  5
2333
330
2
100
AcDbEntity
  8
本体
  6
Continuous
100
AcDbLine
 10
574.3943726623065
 20
366.3243374198851
 30
0.0
 11
1074.394372662306
 21
366.3243374198851
 31
0.0
  0
LINE
  5
2335
330
2
100
AcDbEntity
  8
本体
  6
Continuous
100
AcDbLine
 10
579.3943726623065
 20
466.3243374198851
 30
0.0
 11
579.3943726623065
 21
372.3243374198851
 31
0.0
  0
INSERT
  5
2336
330
2
100
AcDbEntity
  8
エンボス
  6
Continuous
100
AcDbBlockReference
  2
A$C13EC0CC9
 10
574.3943726623065
 20
466.3243374198851
 30
0.0
  0
INSERT
  5
2338
330
2
100
AcDbEntity
  8
エンボス
  6
Continuous
100
AcDbBlockReference
  2
A$C13EC0CC9
 10
1069.394372662306
 20
466.3243374198851
 30
0.0
  0
LINE
  5
2339
330
2
100
AcDbEntity
  8
本体
  6
Continuous
100
AcDbLine
 10
1069.394372662306
 20
313.8243374198851
 30
0.0
 11
1069.394372662306
 21
366.3243374198851
 31
0.0
  0
LINE
  5
233B
330
2
100
AcDbEntity
  8
本体
  6
Continuous
100
AcDbLine
 10
1074.394372662306
 20
309.3243374198851
 30
0.0
 11
1074.394372662306
 21
929.324337419885
 31
0.0
  0
LINE
  5
233C
330
2
100
AcDbEntity
  8
本体
  6
Continuous
100
AcDbLine
 10
1069.394372662306
 20
466.3243374198851
 30
0.0
 11
1069.394372662306
 21
372.3243374198851
 31
0.0
  0
LINE
  5
233F
330
2
100
AcDbEntity
  8
本体
  6
Continuous
100
AcDbLine
 10
1069.394372662306
 20
866.3243374198851
 30
0.0
 11
1069.394372662306
 21
772.3243374198849
 31
0.0
  0
LINE
  5
2341
330
2
100
AcDbEntity
  8
本体
  6
Continuous
100
AcDbLine
 10
1069.394372662306
 20
924.824337419885
 30
0.0
 11
1069.394372662306
 21
872.3243374198851
 31
0.0
  0
LINE
  5
2345
330
2
100
AcDbEntity
  8
本体
  6
Continuous
100
AcDbLine
 10
574.3943726623065
 20
366.3243374198851
 30
0.0
 11
589.3943726623064
 21
372.3243374198851
 31
0.0
  0
LINE
  5
2346
330
2
100
AcDbEntity
  8
本体
  6
Continuous
100
AcDbLine
 10
1069.394372662306
 20
866.3243374198851
 30
0.0
 11
1074.394372662306
 21
867.3243374198849
 31
0.0
  0
LINE
  5
2347
330
2
100
AcDbEntity
  8
本体
  6
Continuous
100
AcDbLine
 10
1069.394372662306
 20
366.3243374198851
 30
0.0
 11
1074.394372662306
 21
367.3243374198851
 31
0.0
  0
LINE
  5
2349
330
2
100
AcDbEntity
  8
嵩上平面
  6
HIDDEN
 48
3.0
370
     9
100
AcDbLine
 10
576.8943726623064
 20
919.3243384198849
 30
0.0
 11
1071.894372662306
 21
919.3243384198849
 31
0.0
  0
LINE
  5
234A
330
2
100
AcDbEntity
  8
嵩上平面
  6
HIDDEN
 48
3.0
370
     9
100
AcDbLine
 10
576.8943726623064
 20
879.3243384198849
 30
0.0
 11
1071.894372662306
 21
879.3243384198849
 31
0.0
  0
LINE
  5
234B
330
2
100
AcDbEntity
  8
嵩上平面
  6
HIDDEN
 48
3.0
370
     9
100
AcDbLine
 10
576.8943726623064
 20
359.3243364198852
 30
0.0
 11
1071.894372662306
 21
359.3243364198852
 31
0.0
  0
LINE
  5
234C
330
2
100
AcDbEntity
  8
嵩上平面
  6
HIDDEN
 48
3.0
370
     9
100
AcDbLine
 10
576.8943726623064
 20
319.3243364198852
 30
0.0
 11
1071.894372662306
 21
319.3243364198852
 31
0.0
  0
LINE
  5
234D
330
2
100
AcDbEntity
  8
嵩上平面
  6
HIDDEN
 48
3.0
370
     9
100
AcDbLine
 10
1071.894372662306
 20
919.3243384198849
 30
0.0
 11
1071.894372662306
 21
879.3243384198849
 31
0.0
  0
LINE
  5
234E
330
2
100
AcDbEntity
  8
嵩上平面
  6
HIDDEN
 48
3.0
370
     9
100
AcDbLine
 10
576.8943726623064
 20
919.3243384198849
 30
0.0
 11
576.8943726623064
 21
879.3243384198849
 31
0.0
  0
LINE
  5
234F
330
2
100
AcDbEntity
  8
嵩上平面
  6
HIDDEN
 48
3.0
370
     9
100
AcDbLine
 10
576.8943726623064
 20
359.3243364198852
 30
0.0
 11
576.8943726623064
 21
319.3243364198852
 31
0.0
  0
LINE
  5
2350
330
2
100
AcDbEntity
  8
嵩上平面
  6
HIDDEN
 48
3.0
370
     9
100
AcDbLine
 10
1071.894372662306
 20
359.3243364198852
 30
0.0
 11
1071.894372662306
 21
319.3243364198852
 31
0.0
  0
LINE
  5
2376
330
2
100
AcDbEntity
  8
本体
100
AcDbLine
 10
1074.394372662306
 20
1473.654661667708
 30
0.0
 11
1074.394372662306
 21
1467.654661667708
 31
0.0
  0
LINE
  5
2377
330
2
100
AcDbEntity
  8
本体
100
AcDbLine
 10
1074.394372662306
 20
1467.654661667708
 30
0.0
 11
1073.394372662306
 21
1466.654661667708
 31
0.0
  0
LINE
  5
2378
330
2
100
AcDbEntity
  8
本体
100
AcDbLine
 10
1069.394372662306
 20
1473.654661667708
 30
0.0
 11
1069.394372662306
 21
1467.654661667708
 31
0.0
  0
LINE
  5
237A
330
2
100
AcDbEntity
  8
本体
100
AcDbLine
 10
1069.394372662306
 20
1408.654661667708
 30
0.0
 11
1074.394372662306
 21
1408.654661667708
 31
0.0
  0
LINE
  5
237C
330
2
100
AcDbEntity
  8
本体
100
AcDbLine
 10
1074.394372662306
 20
1414.654661667708
 30
0.0
 11
1073.394372662306
 21
1415.654661667708
 31
0.0
  0
LINE
  5
2381
330
2
100
AcDbEntity
  8
本体
100
AcDbLine
 10
1069.394372662306
 20
1473.654661667708
 30
0.0
 11
1074.394372662306
 21
1473.654661667708
 31
0.0
  0
LINE
  5
2391
330
2
100
AcDbEntity
  8
本体
100
AcDbLine
 10
1069.394372662306
 20
1467.654661667708
 30
0.0
 11
1070.394372662306
 21
1466.654661667708
 31
0.0
  0
LINE
  5
2393
330
2
100
AcDbEntity
  8
本体
100
AcDbLine
 10
1074.394372662306
 20
1408.654661667708
 30
0.0
 11
1074.394372662306
 21
1414.654661667708
 31
0.0
  0
LINE
  5
2395
330
2
100
AcDbEntity
  8
本体
100
AcDbLine
 10
1069.394372662306
 20
1408.654661667708
 30
0.0
 11
1069.394372662306
 21
1414.654661667708
 31
0.0
  0
LINE
  5
2396
330
2
100
AcDbEntity
  8
本体
100
AcDbLine
 10
1069.394372662306
 20
1414.654661667708
 30
0.0
 11
1070.394372662306
 21
1415.654661667708
 31
0.0
  0
LINE
  5
2397
330
2
100
AcDbEntity
  8
本体
100
AcDbLine
 10
1070.394372662306
 20
1466.654661667708
 30
0.0
 11
1070.394372662306
 21
1415.654661667708
 31
0.0
  0
LINE
  5
2398
330
2
100
AcDbEntity
  8
本体
100
AcDbLine
 10
1073.394372662306
 20
1466.654661667708
 30
0.0
 11
1073.394372662306
 21
1415.654661667708
 31
0.0
  0
LINE
  5
2399
330
2
100
AcDbEntity
  8
本体
  6
Continuous
100
AcDbLine
 10
574.3943726623065
 20
766.3243374198851
 30
0.0
 11
1074.394372662306
 21
766.3243374198851
 31
0.0
  0
LINE
  5
239A
330
2
100
AcDbEntity
  8
本体
  6
Continuous
100
AcDbLine
 10
574.3943726623065
 20
772.3243374198849
 30
0.0
 11
1074.394372662306
 21
772.3243374198849
 31
0.0
  0
INSERT
  5
239B
330
2
100
AcDbEntity
  8
エンボス
  6
Continuous
100
AcDbBlockReference
  2
A$C13EC0CC9
 10
574.3943726623065
 20
766.3243374198851
 30
0.0
  0
LINE
  5
239C
330
2
100
AcDbEntity
  8
本体
  6
Continuous
100
AcDbLine
 10
579.3943726623065
 20
766.3243374198851
 30
0.0
 11
579.3943726623065
 21
672.324337419885
 31
0.0
  0
LINE
  5
239E
330
2
100
AcDbEntity
  8
本体
  6
Continuous
100
AcDbLine
 10
574.3943726623065
 20
766.3243374198851
 30
0.0
 11
589.3943726623064
 21
772.3243374198849
 31
0.0
  0
LINE
  5
23A1
330
2
100
AcDbEntity
  8
本体
  6
Continuous
100
AcDbLine
 10
1069.394372662306
 20
766.3243374198851
 30
0.0
 11
1069.394372662306
 21
672.324337419885
 31
0.0
  0
INSERT
  5
23A2
330
2
100
AcDbEntity
  8
エンボス
  6
Continuous
100
AcDbBlockReference
  2
A$C13EC0CC9
 10
1069.394372662306
 20
766.3243374198851
 30
0.0
  0
LINE
  5
23A3
330
2
100
AcDbEntity
  8
本体
  6
Continuous
100
AcDbLine
 10
1069.394372662306
 20
766.3243374198851
 30
0.0
 11
1074.394372662306
 21
767.3243374198849
 31
0.0
  0
LINE
  5
23A6
330
2
100
AcDbEntity
  8
本体
  6
Continuous
100
AcDbLine
 10
574.3943726623065
 20
672.324337419885
 30
0.0
 11
1074.394372662306
 21
672.324337419885
 31
0.0
  0
LINE
  5
23A7
330
2
100
AcDbEntity
  8
本体
  6
Continuous
100
AcDbLine
 10
574.3943726623065
 20
666.3243374198851
 30
0.0
 11
1074.394372662306
 21
666.3243374198851
 31
0.0
  0
LINE
  5
23A9
330
2
100
AcDbEntity
  8
本体
  6
Continuous
100
AcDbLine
 10
579.3943726623065
 20
666.3243374198851
 30
0.0
 11
579.3943726623065
 21
572.324337419885
 31
0.0
  0
INSERT
  5
23AA
330
2
100
AcDbEntity
  8
エンボス
  6
Continuous
100
AcDbBlockReference
  2
A$C13EC0CC9
 10
574.3943726623065
 20
666.3243374198851
 30
0.0
  0
LINE
  5
23AB
330
2
100
AcDbEntity
  8
本体
  6
Continuous
100
AcDbLine
 10
574.3943726623065
 20
666.3243374198851
 30
0.0
 11
589.3943726623064
 21
672.324337419885
 31
0.0
  0
INSERT
  5
23AD
330
2
100
AcDbEntity
  8
エンボス
  6
Continuous
100
AcDbBlockReference
  2
A$C13EC0CC9
 10
1069.394372662306
 20
666.3243374198851
 30
0.0
  0
LINE
  5
23AE
330
2
100
AcDbEntity
  8
本体
  6
Continuous
100
AcDbLine
 10
1069.394372662306
 20
666.3243374198851
 30
0.0
 11
1069.394372662306
 21
572.324337419885
 31
0.0
  0
LINE
  5
23B1
330
2
100
AcDbEntity
  8
本体
  6
Continuous
100
AcDbLine
 10
1069.394372662306
 20
666.3243374198851
 30
0.0
 11
1074.394372662306
 21
667.324337419885
 31
0.0
  0
LINE
  5
23B2
330
2
100
AcDbEntity
  8
本体
  6
Continuous
100
AcDbLine
 10
574.3943726623065
 20
566.3243374198851
 30
0.0
 11
1074.394372662306
 21
566.3243374198851
 31
0.0
  0
LINE
  5
23B3
330
2
100
AcDbEntity
  8
本体
  6
Continuous
100
AcDbLine
 10
574.3943726623065
 20
572.324337419885
 30
0.0
 11
1074.394372662306
 21
572.324337419885
 31
0.0
  0
INSERT
  5
23B4
330
2
100
AcDbEntity
  8
エンボス
  6
Continuous
100
AcDbBlockReference
  2
A$C13EC0CC9
 10
574.3943726623065
 20
566.3243374198851
 30
0.0
  0
LINE
  5
23B5
330
2
100
AcDbEntity
  8
本体
  6
Continuous
100
AcDbLine
 10
579.3943726623065
 20
566.3243374198851
 30
0.0
 11
579.3943726623065
 21
472.324337419885
 31
0.0
  0
LINE
  5
23B7
330
2
100
AcDbEntity
  8
本体
  6
Continuous
100
AcDbLine
 10
574.3943726623065
 20
566.3243374198851
 30
0.0
 11
589.3943726623064
 21
572.324337419885
 31
0.0
  0
LINE
  5
23BA
330
2
100
AcDbEntity
  8
本体
  6
Continuous
100
AcDbLine
 10
1069.394372662306
 20
566.3243374198851
 30
0.0
 11
1069.394372662306
 21
472.324337419885
 31
0.0
  0
INSERT
  5
23BB
330
2
100
AcDbEntity
  8
エンボス
  6
Continuous
100
AcDbBlockReference
  2
A$C13EC0CC9
 10
1069.394372662306
 20
566.3243374198851
 30
0.0
  0
LINE
  5
23BC
330
2
100
AcDbEntity
  8
本体
  6
Continuous
100
AcDbLine
 10
1069.394372662306
 20
566.3243374198851
 30
0.0
 11
1074.394372662306
 21
567.324337419885
 31
0.0
  0
LINE
  5
23BE
330
2
100
AcDbEntity
  8
本体
  6
Continuous
100
AcDbLine
 10
574.3943726623065
 20
472.324337419885
 30
0.0
 11
1074.394372662306
 21
472.324337419885
 31
0.0
  0
LINE
  5
23BF
330
2
100
AcDbEntity
  8
本体
  6
Continuous
100
AcDbLine
 10
574.3943726623065
 20
466.3243374198851
 30
0.0
 11
1074.394372662306
 21
466.3243374198851
 31
0.0
  0
LINE
  5
23C1
330
2
100
AcDbEntity
  8
本体
  6
Continuous
100
AcDbLine
 10
574.3943726623065
 20
466.3243374198851
 30
0.0
 11
589.3943726623064
 21
472.324337419885
 31
0.0
  0
LINE
  5
23C3
330
2
100
AcDbEntity
  8
本体
  6
Continuous
100
AcDbLine
 10
1069.394372662306
 20
466.3243374198851
 30
0.0
 11
1074.394372662306
 21
467.3243374198849
 31
0.0
  0
INSERT
  5
23C5
330
2
100
AcDbEntity
  8
本体
 48
3.0
100
AcDbBlockReference
  2
GFB新
 10
2776.61399768537
 20
473.2537811749556
 30
0.0
  0
LINE
  5
2670
330
2
100
AcDbEntity
  8
本体
  6
Continuous
100
AcDbLine
 10
1059.394372662306
 20
1473.654661667708
 30
0.0
 11
1069.394372662306
 21
1473.654661667708
 31
0.0
  0
LINE
  5
2671
330
2
100
AcDbEntity
  8
本体
100
AcDbLine
 10
1054.394372662306
 20
1473.654661667708
 30
0.0
 11
1059.394372662306
 21
1473.654661667708
 31
0.0
  0
LINE
  5
267B
330
2
100
AcDbEntity
  8
本体
100
AcDbLine
 10
1055.394372662306
 20
1466.654661667708
 30
0.0
 11
1055.394372662306
 21
1415.654661667708
 31
0.0
  0
LINE
  5
267C
330
2
100
AcDbEntity
  8
本体
100
AcDbLine
 10
1058.394372662306
 20
1466.654661667708
 30
0.0
 11
1058.394372662306
 21
1415.654661667708
 31
0.0
  0
LINE
  5
267F
330
2
100
AcDbEntity
  8
本体
100
AcDbLine
 10
1059.394372662306
 20
1467.654661667708
 30
0.0
 11
1058.394372662306
 21
1466.654661667708
 31
0.0
  0
LINE
  5
2680
330
2
100
AcDbEntity
  8
本体
100
AcDbLine
 10
1054.394372662306
 20
1473.654661667708
 30
0.0
 11
1054.394372662306
 21
1467.654661667708
 31
0.0
  0
LINE
  5
2684
330
2
100
AcDbEntity
  8
本体
100
AcDbLine
 10
1059.394372662306
 20
1414.654661667708
 30
0.0
 11
1058.394372662306
 21
1415.654661667708
 31
0.0
  0
LINE
  5
268A
330
2
100
AcDbEntity
  8
本体
100
AcDbLine
 10
1059.394372662306
 20
1473.654661667708
 30
0.0
 11
1059.394372662306
 21
1467.654661667708
 31
0.0
  0
LINE
  5
268D
330
2
100
AcDbEntity
  8
本体
100
AcDbLine
 10
1054.394372662306
 20
1467.654661667708
 30
0.0
 11
1055.394372662306
 21
1466.654661667708
 31
0.0
  0
LINE
  5
268E
330
2
100
AcDbEntity
  8
本体
100
AcDbLine
 10
1054.394372662306
 20
1408.654661667708
 30
0.0
 11
1059.394372662306
 21
1408.654661667708
 31
0.0
  0
LINE
  5
268F
330
2
100
AcDbEntity
  8
本体
100
AcDbLine
 10
1059.394372662306
 20
1408.654661667708
 30
0.0
 11
1059.394372662306
 21
1414.654661667708
 31
0.0
  0
LINE
  5
2691
330
2
100
AcDbEntity
  8
本体
100
AcDbLine
 10
1054.394372662306
 20
1408.654661667708
 30
0.0
 11
1054.394372662306
 21
1414.654661667708
 31
0.0
  0
LINE
  5
2692
330
2
100
AcDbEntity
  8
本体
100
AcDbLine
 10
1054.394372662306
 20
1414.654661667708
 30
0.0
 11
1055.394372662306
 21
1415.654661667708
 31
0.0
  0
LINE
  5
2695
330
2
100
AcDbEntity
  8
本体
 48
3.0
100
AcDbLine
 10
1058.394372662306
 20
1429.654661667708
 30
0.0
 11
1069.394372662306
 21
1429.654661667708
 31
0.0
  0
LINE
  5
2696
330
2
100
AcDbEntity
  8
本体
  6
Continuous
100
AcDbLine
 10
1059.394372662306
 20
1467.654661667708
 30
0.0
 11
1069.394372662306
 21
1467.654661667708
 31
0.0
  0
LINE
  5
2697
330
2
100
AcDbEntity
  8
本体
  6
Continuous
100
AcDbLine
 10
1059.394372662306
 20
1467.654661667708
 30
0.0
 11
1069.394372662306
 21
1473.654661667708
 31
0.0
  0
DIMENSION
  5
296D
330
2
100
AcDbEntity
  8
寸法線
  6
Continuous
100
AcDbDimension
  2
*D26
 10
846.8943726623065
 20
1553.654661667708
 30
0.0
 11
898.3410731699208
 21
1573.654661667708
 31
0.0
 70
    32
 71
     5
 42
15.0
  3
ISO-25
100
AcDbAlignedDimension
 13
831.8943726623064
 23
1478.783896262257
 33
0.0
 14
846.8943726623065
 24
1478.783896262257
 34
0.0
100
AcDbRotatedDimension
  0
LINE
  5
296E
330
2
100
AcDbEntity
  8
中心線
  6
CENTER
100
AcDbLine
 10
831.8943726623064
 20
1478.783896262257
 30
0.0
 11
831.8943726623064
 21
1433.654661667708
 31
0.0
  0
LINE
  5
296F
330
2
100
AcDbEntity
  8
中心線
  6
CENTER
100
AcDbLine
 10
846.8943726623065
 20
1478.783896262257
 30
0.0
 11
846.8943726623065
 21
1433.654661667708
 31
0.0
  0
LEADER
  5
3121
330
2
100
AcDbEntity
  8
寸法線
  6
Continuous
100
AcDbLeader
  3
ISO-25
 73
     0
 74
     0
 75
     1
 40
30.0
 41
152.1319796954314
 76
     3
 10
1040.389218696803
 20
647.2809161565447
 30
0.0
 10
1096.079517720428
 20
733.3682126513713
 30
0.0
 10
1111.079517720429
 20
733.3682126513713
 30
0.0
340
3122
1001
ACAD
1000
DSTYLE
1002
{
1070
     5
1000
OPEN30
1070
    77
1070
     1
1070
   147
1040
0.5
1070
   342
1005
DF
1002
}
  0
MTEXT
  5
3122
102
{ACAD_REACTORS
330
3121
102
}
330
2
100
AcDbEntity
  8
寸法線
  6
Continuous
100
AcDbMText
 10
1116.079517720429
 20
738.3682126513713
 30
0.0
 40
30.0
 41
0.0
 71
     7
 72
     1
  1
GFB5\U+00D713
 73
     1
 44
1.0
1001
ACAD
1000
MTEXTBEGIN
1070
    73
1070
     1
1070
    44
1040
1.0
1070
    74
1070
     0
1000
MTEXTEND
  0
MTEXT
  5
3165
330
2
100
AcDbEntity
  8
外枠
  6
Continuous
 48
100.0
370
     9
100
AcDbMText
 10
513.3957806683882
 20
136.153556424215
 30
0.0
 40
23.0
 41
655.2993456750336
 71
     1
 72
     5
  1
LSハイテンJIS道路側溝用レボ細目グレーチング
 73
     1
 44
1.0
1001
ACAD
1000
MTEXTBEGIN
1070
    73
1070
     1
1070
    44
1040
1.0
1070
    74
1070
     0
1000
MTEXTEND
  0
INSERT
  5
316E
330
2
100
AcDbEntity
  8
外枠
 48
3.0
100
AcDbBlockReference
  2
鎌下
 10
2271.730765417811
 20
155.3992728207995
 30
0.0
  0
LINE
  5
4B60
330
2
100
AcDbEntity
  8
嵩上断面
  6
Continuous
100
AcDbLine
 10
576.8943726623064
 20
1408.654661667708
 30
0.0
 11
576.8943726623064
 21
1353.654661667708
 31
0.0
  0
LINE
  5
4B61
330
2
100
AcDbEntity
  8
嵩上断面
  6
Continuous
100
AcDbLine
 10
1071.894372662306
 20
1408.654661667708
 30
0.0
 11
1071.894372662306
 21
1353.654661667708
 31
0.0
  0
LINE
  5
4B62
330
2
100
AcDbEntity
  8
嵩上断面
  6
HIDDEN
 48
2.0
100
AcDbLine
 10
1071.894372662306
 20
1356.854661667708
 30
0.0
 11
576.8943726623064
 21
1356.854661667708
 31
0.0
  0
DIMENSION
  5
4B64
330
2
100
AcDbEntity
  8
寸法線
  6
Continuous
100
AcDbDimension
  2
*D30
 10
1264.40123348957
 20
1348.654661667708
 30
0.0
 11
1244.401233489569
 21
1411.154661667708
 31
0.0
 70
    32
 71
     5
 42
125.0
  3
ISO-25
100
AcDbAlignedDimension
 13
1071.894372662306
 23
1473.654661667708
 33
0.0
 14
1071.894372662306
 24
1348.654661667708
 34
0.0
 50
90.0
100
AcDbRotatedDimension
  0
LINE
  5
4B65
102
{ACAD_REACTORS
330
4B6A
102
}
330
2
100
AcDbEntity
  8
嵩上断面
  6
Continuous
100
AcDbLine
 10
576.8943726623064
 20
1353.654661667708
 30
0.0
 11
1071.894372662306
 21
1353.654661667708
 31
0.0
  0
DIMENSION
  5
4B66
330
2
100
AcDbEntity
  8
寸法線
 48
3.0
100
AcDbDimension
  2
*D31
 10
1184.39899658607
 20
1408.654661667708
 30
0.0
 11
1164.39899658607
 21
1381.154661667708
 31
0.0
 70
    32
 71
     5
 42
55.0
  3
ISO-25
100
AcDbAlignedDimension
 13
1071.894372662306
 23
1353.654661667708
 33
0.0
 14
1074.394372662306
 24
1408.654661667708
 34
0.0
 50
90.0
100
AcDbRotatedDimension
  0
LINE
  5
4B67
102
{ACAD_REACTORS
330
4B6A
102
}
330
2
100
AcDbEntity
  8
ゴム
 48
3.0
100
AcDbLine
 10
576.8943726623064
 20
1353.654661667708
 30
0.0
 11
576.8943726623064
 21
1348.654661667708
 31
0.0
  0
LINE
  5
4B68
102
{ACAD_REACTORS
330
4B6A
102
}
330
2
100
AcDbEntity
  8
ゴム
 48
3.0
100
AcDbLine
 10
576.8943726623064
 20
1348.654661667708
 30
0.0
 11
1071.894372662306
 21
1348.654661667708
 31
0.0
  0
LINE
  5
4B69
102
{ACAD_REACTORS
330
4B6A
102
}
330
2
100
AcDbEntity
  8
ゴム
 48
3.0
100
AcDbLine
 10
1071.894372662306
 20
1348.654661667708
 30
0.0
 11
1071.894372662306
 21
1353.654661667708
 31
0.0
  0
HATCH
  5
4B6A
330
2
100
AcDbEntity
  8
ゴム
 48
3.0
100
AcDbHatch
 10
0.0
 20
0.0
 30
0.0
210
0.0
220
0.0
230
1.0
  2
ANSI31
 70
     0
 71
     1
 91
        1
 92
        7
 72
     0
 73
     1
 93
        4
 10
576.8943726623064
 20
1353.654661667708
 10
576.8943726623064
 20
1348.654661667708
 10
1071.894372662306
 20
1348.654661667708
 10
1071.894372662306
 20
1353.654661667708
 97
        4
330
4B65
330
4B67
330
4B68
330
4B69
 75
     0
 76
     1
 52
0.0
 41
1.0
 77
     0
 78
     1
 53
45.0
 43
-26.66538625511293
 44
861.85554966974
 45
-2.245064030267287
 46
2.245064030267287
 79
     0
 47
1.503168287818455
 98
        1
 10
946.1958135463099
 20
1351.35566212663
  0
DIMENSION
  5
4B6B
330
2
100
AcDbEntity
  8
寸法線
 48
3.0
100
AcDbDimension
  2
*D32
 10
1184.39899658607
 20
1348.654661667708
 30
0.0
 11
1164.39899658607
 21
1305.888164205779
 31
0.0
 70
    32
 71
     5
 42
5.0
  3
ISO-25
100
AcDbAlignedDimension
 13
1071.894372662306
 23
1353.654661667708
 33
0.0
 14
1071.894372662306
 24
1348.654661667708
 34
0.0
 50
90.0
100
AcDbRotatedDimension
  0
DIMENSION
  5
4BE0
330
2
100
AcDbEntity
  8
寸法線
  6
Continuous
100
AcDbDimension
  2
*D33
 10
1668.714849642466
 20
1268.653743159831
 30
0.0
 11
1968.714845642466
 21
1288.653743159831
 31
0.0
 70
    32
 71
     5
 42
599.999992
  3
ISO-25
100
AcDbAlignedDimension
 13
2268.714841642466
 23
1348.654659667708
 33
0.0
 14
1668.714849642466
 24
1348.654659667708
 34
0.0
100
AcDbRotatedDimension
  0
INSERT
  5
4BE3
330
2
100
AcDbEntity
  8
嵩上断面
 48
3.0
100
AcDbBlockReference
  2
P-H55
 10
2268.714851642466
 20
1408.654661667708
 30
0.0
 50
270.0
  0
INSERT
  5
4BE4
330
2
100
AcDbEntity
  8
ゴム
 48
3.0
100
AcDbBlockReference
  2
平ゴムパッキン
 10
2268.714852642466
 20
1356.654664667708
 30
0.0
 50
270.0
  0
INSERT
  5
4BE5
330
2
100
AcDbEntity
  8
ゴム
 48
3.0
100
AcDbBlockReference
  2
平ゴムパッキン
 10
1668.714838642465
 20
1356.654664667708
 30
0.0
 41
-1.0
 50
90.0
  0
INSERT
  5
4BE6
330
2
100
AcDbEntity
  8
嵩上断面
 48
3.0
100
AcDbBlockReference
  2
P-H55
 10
1668.714839642466
 20
1408.654661667708
 30
0.0
 41
-1.0
 50
90.0
  0
LINE
  5
4C62
330
2
100
AcDbEntity
  8
本体
 48
3.0
100
AcDbLine
 10
1623.714850642467
 20
593.981714047099
 30
0.0
 11
2313.714850642468
 21
593.9817140471136
 31
0.0
  0
LINE
  5
4C63
330
2
100
AcDbEntity
  8
本体
 48
3.0
100
AcDbLine
 10
1623.714850642467
 20
653.9817140470991
 30
0.0
 11
2313.714850642468
 21
653.9817140471141
 31
0.0
  0
LINE
  5
4C64
330
2
100
AcDbEntity
  8
本体
 48
3.0
100
AcDbLine
 10
1623.714850642467
 20
653.9817140470991
 30
0.0
 11
1623.714850642467
 21
593.981714047099
 31
0.0
  0
LINE
  5
4C65
330
2
100
AcDbEntity
  8
本体
 48
3.0
100
AcDbLine
 10
2068.714850642468
 20
653.9817140470991
 30
0.0
 11
2068.714850642468
 21
593.981714047099
 31
0.0
  0
MTEXT
  5
4C66
330
2
100
AcDbEntity
  8
外枠
  6
Continuous
 48
100.0
370
     9
100
AcDbMText
 10
1935.740040541899
 20
635.6466292227857
 30
0.0
 40
25.0
 41
100.7596122118877
 71
     1
 72
     5
  1
SS540
 73
     1
 44
1.0
1001
ACAD
1000
MTEXTBEGIN
1070
    73
1070
     1
1070
    44
1040
1.0
1070
    74
1070
     0
1000
MTEXTEND
  0
LINE
  5
4C67
330
2
100
AcDbEntity
  8
本体
 48
3.0
100
AcDbLine
 10
1783.714850642509
 20
653.9817140471141
 30
0.0
 11
1783.714850642509
 21
593.981714047099
 31
0.0
  0
MTEXT
  5
4C68
330
2
100
AcDbEntity
  8
外枠
  6
Continuous
 48
100.0
370
     9
100
AcDbMText
 10
1655.551744994514
 20
638.1214172632468
 30
0.0
 40
25.0
 41
109.2913512849802
 71
     1
 72
     5
  1
主部材
 73
     1
 44
1.0
1001
ACAD
1000
MTEXTBEGIN
1070
    73
1070
     1
1070
    44
1040
1.0
1070
    74
1070
     0
1000
MTEXTEND
  0
MTEXT
  5
4C69
330
2
100
AcDbEntity
  8
外枠
  6
Continuous
 48
100.0
370
     9
100
AcDbMText
 10
1795.770349774578
 20
638.1214172632468
 30
0.0
 40
25.0
 41
207.8885004816141
 71
     1
 72
     5
  1
ﾊｲﾃﾝ鋼
 73
     1
 44
1.0
1001
ACAD
1000
MTEXTBEGIN
1070
    73
1070
     1
1070
    44
1040
1.0
1070
    74
1070
     0
1000
MTEXTEND
  0
MTEXT
  5
4C6A
330
2
100
AcDbEntity
  8
外枠
  6
Continuous
 48
100.0
370
     9
100
AcDbMText
 10
1921.099907134204
 20
698.1214172632612
 30
0.0
 40
25.0
 41
1015.1375
 71
     1
 72
     5
  1
材料表
 73
     1
 44
1.0
1001
ACAD
1000
MTEXTBEGIN
1070
    73
1070
     1
1070
    44
1040
1.0
1070
    74
1070
     0
1000
MTEXTEND
  0
LINE
  5
4C6B
330
2
100
AcDbEntity
  8
本体
 48
3.0
100
AcDbLine
 10
1908.714850642466
 20
653.9817140471141
 30
0.0
 11
1908.714850642466
 21
593.981714047099
 31
0.0
  0
LINE
  5
4C6C
330
2
100
AcDbEntity
  8
本体
 48
3.0
100
AcDbLine
 10
2313.714850642468
 20
653.9817140470991
 30
0.0
 11
2313.714850642468
 21
593.981714047099
 31
0.0
  0
MTEXT
  5
4C6D
330
2
100
AcDbEntity
  8
外枠
  6
Continuous
 48
100.0
370
     9
100
AcDbMText
 10
2080.593578799198
 20
635.6466292227805
 30
0.0
 40
25.0
 41
237.5565498464996
 71
     1
 72
     5
  1
HGIB5\U+00D73\U+00D765
 73
     1
 44
1.0
1001
ACAD
1000
MTEXTBEGIN
1070
    73
1070
     1
1070
    44
1040
1.0
1070
    74
1070
     0
1000
MTEXTEND
  0
LINE
  5
4C6E
330
2
100
AcDbEntity
  8
外枠
 48
3.0
100
AcDbLine
 10
1679.54254344874
 20
768.4324096870841
 30
0.0
 11
2257.887157836191
 21
768.4324096870841
 31
0.0
  0
MTEXT
  5
4C73
330
2
100
AcDbEntity
  8
外枠
  6
Continuous
 48
100.0
370
     9
100
AcDbMText
 10
1873.105711096208
 20
804.9688796113329
 30
0.0
 40
30.0
 41
299.6031884460488
 71
     1
 72
     5
  1
\A1;VNFJ65-50B
 73
     1
 44
1.0
1001
ACAD
1000
MTEXTBEGIN
1070
    73
1070
     1
1070
    44
1040
1.0
1070
    74
1070
     0
1000
MTEXTEND
  0
MTEXT
  5
4C74
330
2
100
AcDbEntity
  8
外枠
  6
Continuous
 48
100.0
370
     9
100
AcDbMText
 10
1686.730002993211
 20
855.6020116467262
 30
0.0
 40
26.0
 41
588.9064028521779
 71
     1
 72
     5
  1
ハイテン鋼製グレーチング T-25 細目
 73
     1
 44
1.0
1001
ACAD
1000
MTEXTBEGIN
1070
    73
1070
     1
1070
    44
1040
1.0
1070
    74
1070
     0
1000
MTEXTEND
  0
LINE
  5
4C75
330
2
100
AcDbEntity
  8
外枠
 48
3.0
100
AcDbLine
 10
1679.94122854836
 20
818.4324096870987
 30
0.0
 11
2257.887157836192
 21
818.4324096870987
 31
0.0
  0
MTEXT
  5
4C7C
330
2
100
AcDbEntity
  8
寸法線
  6
Continuous
100
AcDbMText
 10
1122.06835007168
 20
811.2464654648256
 30
0.0
 40
30.0
 41
0.0
 71
     7
 72
     1
  1
(SS540)
 73
     1
 44
1.0
1001
ACAD
1000
MTEXTBEGIN
1070
    73
1070
     1
1070
    44
1040
1.0
1070
    74
1070
     0
1000
MTEXTEND
  0
DIMENSION
  5
4C92
330
2
100
AcDbEntity
  8
寸法線
  6
Continuous
100
AcDbDimension
  2
*D35
 10
1071.894372662306
 20
1188.654661667708
 30
0.0
 11
823.3943726623065
 21
1188.654661667708
 31
0.0
 70
   160
 71
     5
 42
495.0
  3
ISO-25
100
AcDbAlignedDimension
 13
576.8943726623064
 23
1348.654661667708
 33
0.0
 14
1071.894372662306
 24
1348.654661667708
 34
0.0
100
AcDbRotatedDimension
  0
LEADER
  5
4C93
330
2
100
AcDbEntity
  8
寸法線
  6
Continuous
100
AcDbLeader
  3
ISO-25
 73
     0
 74
     0
 75
     1
 40
31.82741116751269
 41
385.4314720812182
 76
     3
 10
599.8099708814297
 20
1348.654661667708
 30
0.0
 10
621.6803233167466
 20
1268.654661667708
 30
0.0
 10
636.6803233167465
 20
1268.654661667708
 30
0.0
340
4C94
1001
ACAD
1000
DSTYLE
1002
{
1070
     5
1000
OPEN30
1070
    77
1070
     1
1070
   147
1040
0.5
1070
   342
1005
DF
1002
}
  0
MTEXT
  5
4C94
102
{ACAD_REACTORS
330
4C93
102
}
330
2
100
AcDbEntity
  8
寸法線
  6
Continuous
100
AcDbMText
 10
641.6803233167467
 20
1289.568367251464
 30
0.0
 40
30.0
 41
0.0
 71
     4
 72
     1
  1
P2.3\U+00D755\U+00D740+HGRゴム
 73
     1
 44
1.0
1001
ACAD
1000
MTEXTBEGIN
1070
    73
1070
     1
1070
    44
1040
1.0
1070
    74
1070
     0
1000
MTEXTEND
  0
INSERT
  5
4D81
102
{ACAD_REACTORS
330
4DBA
102
}
330
2
100
AcDbEntity
  8
寸法線
100
AcDbBlockReference
  2
*U37
 10
589.8943726623065
 20
1441.154661667708
 30
0.0
  0
INSERT
  5
4DD4
102
{ACAD_REACTORS
330
4DF7
102
}
330
2
100
AcDbEntity
  8
寸法線
100
AcDbBlockReference
  2
*U39
 10
596.8943726623065
 20
619.324337419885
 30
0.0
  0
ENDSEC
  0
SECTION
  2
OBJECTS
  0
DICTIONARY
  5
7
330
0
100
AcDbDictionary
281
     1
  3
ACAD_ASSOCNETWORK
350
4DB2
  3
ACAD_CIP_PREVIOUS_PRODUCT_INFO
350
1505
  3
ACAD_COLOR
350
14E3
  3
ACAD_DETAILVIEWSTYLE
350
14FC
  3
ACAD_GROUP
350
55F
  3
ACAD_LAYOUT
350
545
  3
ACAD_MATERIAL
350
14B1
  3
ACAD_MLEADERSTYLE
350
14F8
  3
ACAD_MLINESTYLE
350
560
  3
ACAD_PLOTSETTINGS
350
561
  3
ACAD_PLOTSTYLENAME
350
6
  3
ACAD_SCALELIST
350
14E6
  3
ACAD_SECTIONVIEWSTYLE
350
14FA
  3
ACAD_TABLESTYLE
350
14E4
  3
ACAD_VISUALSTYLE
350
14CA
  3
AcadDim
350
11C2
  3
ACDB_RECOMPOSE_DATA
350
4E1C
  3
AcDbVariableDictionary
350
11A3
  3
DWGPROPS
350
4E1D
  0
DICTIONARY
  5
3179
330
55A
100
AcDbDictionary
280
     1
281
     1
  0
DICTIONARY
  5
15C6
330
552
100
AcDbDictionary
280
     1
281
     1
  3
ACAD_LAYERSTATES
360
15C7
  0
DICTIONARY
  5
1506
330
64
100
AcDbDictionary
280
     1
281
     1
  3
ADSK_XREC_LAYER_RECONCILED
360
1507
  0
DICTIONARY
  5
1508
330
6A
100
AcDbDictionary
280
     1
281
     1
  3
ADSK_XREC_LAYER_RECONCILED
360
1509
  0
DICTIONARY
  5
150A
330
4
100
AcDbDictionary
280
     1
281
     1
  3
ADSK_XREC_LAYER_RECONCILED
360
150B
  0
DICTIONARY
  5
150E
330
67
100
AcDbDictionary
280
     1
281
     1
  3
ADSK_XREC_LAYER_RECONCILED
360
150F
  0
DICTIONARY
  5
1510
330
11
100
AcDbDictionary
280
     1
281
     1
  3
ADSK_XREC_LAYER_RECONCILED
360
1511
  0
DICTIONARY
  5
1514
330
13AF
100
AcDbDictionary
280
     1
281
     1
  3
ADSK_XREC_LAYER_RECONCILED
360
1515
  0
DICTIONARY
  5
1516
330
13B4
100
AcDbDictionary
280
     1
281
     1
  3
ADSK_XREC_LAYER_RECONCILED
360
1517
  0
DICTIONARY
  5
1518
330
13B9
100
AcDbDictionary
280
     1
281
     1
  3
ADSK_XREC_LAYER_RECONCILED
360
1519
  0
DICTIONARY
  5
15C5
330
15C4
100
AcDbDictionary
280
     1
281
     1
  0
DICTIONARY
  5
540
330
2
100
AcDbDictionary
280
     1
281
     1
  3
ACAD_ASSOCNETWORK
360
4DB0
  3
ACAD_LAYOUTSELFREF
360
541
  3
ACAD_SORTENTS
360
30D6
  0
DICTIONARY
  5
547
330
546
100
AcDbDictionary
280
     1
281
     1
  3
ACAD_LAYOUTSELFREF
360
548
  0
DICTIONARY
  5
54D
330
54C
100
AcDbDictionary
280
     1
281
     1
  3
ACAD_LAYOUTSELFREF
360
54E
  0
DICTIONARY
  5
15A9
330
15A8
100
AcDbDictionary
280
     1
281
     1
  0
DICTIONARY
  5
316B
330
3167
100
AcDbDictionary
280
     1
281
     1
  0
DICTIONARY
  5
4E5B
330
4D7E
100
AcDbDictionary
280
     1
281
     1
  3
AcDbBlockTableRecordData
360
4E5C
  0
DICTIONARY
  5
4E5E
330
4DD1
100
AcDbDictionary
280
     1
281
     1
  3
AcDbBlockTableRecordData
360
4E5F
  0
DICTIONARY
  5
4DB2
102
{ACAD_REACTORS
330
7
102
}
330
7
100
AcDbDictionary
281
     1
  3
ACAD_ASSOCNETWORK
350
4DB3
  0
XRECORD
  5
1505
102
{ACAD_REACTORS
330
7
102
}
330
7
100
AcDbXrecord
280
     1
300
ACDLT
300
2014
300
ACDLT_F_S
  0
DICTIONARY
  5
14E3
102
{ACAD_REACTORS
330
7
102
}
330
7
100
AcDbDictionary
281
     1
  0
DICTIONARY
  5
14FC
102
{ACAD_REACTORS
330
7
102
}
330
7
100
AcDbDictionary
281
     1
  3
Metric50
350
14FD
  0
DICTIONARY
  5
55F
102
{ACAD_REACTORS
330
7
102
}
330
7
100
AcDbDictionary
281
     1
  0
DICTIONARY
  5
545
102
{ACAD_REACTORS
330
7
102
}
330
7
100
AcDbDictionary
281
     1
  3
Layout1
350
54B
  3
Layout2
350
551
  3
Model
350
544
  0
DICTIONARY
  5
14B1
102
{ACAD_REACTORS
330
7
102
}
330
7
100
AcDbDictionary
281
     1
  3
ByBlock
350
14BA
  3
ByLayer
350
14B2
  3
Global
350
14C2
  0
DICTIONARY
  5
14F8
102
{ACAD_REACTORS
330
7
102
}
330
7
100
AcDbDictionary
281
     1
  3
Standard
350
14F9
  0
DICTIONARY
  5
560
102
{ACAD_REACTORS
330
7
102
}
330
7
100
AcDbDictionary
281
     1
  3
Standard
350
562
  0
DICTIONARY
  5
561
102
{ACAD_REACTORS
330
7
102
}
330
7
100
AcDbDictionary
281
     1
  0
ACDBDICTIONARYWDFLT
  5
6
102
{ACAD_REACTORS
330
7
102
}
330
7
100
AcDbDictionary
281
     1
  3
Normal
350
5
100
AcDbDictionaryWithDefault
340
5
  0
DICTIONARY
  5
14E6
102
{ACAD_REACTORS
330
7
102
}
330
7
100
AcDbDictionary
281
     1
  3
A0
350
14E7
  3
A1
350
14E8
  3
A2
350
14E9
  3
A3
350
14EA
  3
A4
350
14EB
  3
A5
350
14EC
  3
A6
350
14ED
  3
A7
350
14EE
  3
A8
350
14EF
  3
A9
350
14F0
  3
B0
350
14F1
  3
B1
350
14F2
  3
B2
350
14F3
  3
B3
350
14F4
  3
B4
350
14F5
  3
B5
350
14F6
  3
B6
350
14F7
  0
DICTIONARY
  5
14FA
102
{ACAD_REACTORS
330
7
102
}
330
7
100
AcDbDictionary
281
     1
  3
Metric50
350
14FB
  0
DICTIONARY
  5
14E4
102
{ACAD_REACTORS
330
7
102
}
330
7
100
AcDbDictionary
281
     1
  3
Standard
350
14E5
  0
DICTIONARY
  5
14CA
102
{ACAD_REACTORS
330
7
102
}
330
7
100
AcDbDictionary
281
     1
  3
2dWireframe
350
14D0
  3
Basic
350
14CF
  3
Brighten
350
14D6
  3
ColorChange
350
14DA
  3
Conceptual
350
14D3
  3
Dim
350
14D5
  3
EdgeColorOff
350
14E2
  3
Facepattern
350
14D9
  3
Flat
350
14CB
  3
FlatWithEdges
350
14CC
  3
Gouraud
350
14CD
  3
GouraudWithEdges
350
14CE
  3
Hidden
350
14D2
  3
JitterOff
350
14E0
  3
Linepattern
350
14D8
  3
OverhangOff
350
14E1
  3
Realistic
350
14D4
  3
Shaded
350
14DF
  3
Shaded with edges
350
14DE
  3
Shades of Gray
350
14DB
  3
Sketchy
350
14DC
  3
Thicken
350
14D7
  3
Wireframe
350
14D1
  3
X-Ray
350
14DD
  0
XRECORD
  5
11C2
102
{ACAD_REACTORS
330
7
102
}
330
7
100
AcDbXrecord
280
     1
 90
   990106
  3

 60
     0
 61
     0
 62
     1
 63
     3
 64
     1
 65
     0
 66
     0
 67
     3
 68
     1
 69
     0
 70
     0
 71
     0
 72
     0
 40
0.0
170
     2
340
0
  0
XRECORD
  5
4E1C
102
{ACAD_REACTORS
330
7
102
}
330
7
100
AcDbXrecord
280
     1
 90
        1
330
14E5
  0
DICTIONARY
  5
11A3
102
{ACAD_REACTORS
330
7
102
}
330
7
100
AcDbDictionary
281
     1
  3
CANNOSCALE
350
31B9
  3
CMLEADERSTYLE
350
31B6
  3
CTABLESTYLE
350
31B5
  3
CVIEWDETAILSTYLE
350
31B7
  3
CVIEWSECTIONSTYLE
350
31B8
  3
DIMASSOC
350
31BB
  3
INDEXCTL
350
31BA
  3
SORTENTS
350
11A4
  3
XCLIPFRAME
350
4E1A
  0
XRECORD
  5
4E1D
102
{ACAD_REACTORS
330
7
102
}
330
7
100
AcDbXrecord
280
     1
  1
DWGPROPS COOKIE
  2

  3

  4

  6

  7

  8
TAKARA
  9

300
=
301
=
302
=
303
=
304
=
305
=
306
=
307
=
308
=
309
=
 40
0.0854395949074074
 41
2453510.558637211
 42
2457528.754789838
  1

 90
        0
  0
DICTIONARY
  5
15C7
102
{ACAD_REACTORS
330
15C6
102
}
330
15C6
100
AcDbDictionary
281
     1
  0
XRECORD
  5
1507
102
{ACAD_REACTORS
330
1506
102
}
330
1506
100
AcDbXrecord
280
     1
290
     1
  0
XRECORD
  5
1509
102
{ACAD_REACTORS
330
1508
102
}
330
1508
100
AcDbXrecord
280
     1
290
     1
  0
XRECORD
  5
150B
102
{ACAD_REACTORS
330
150A
102
}
330
150A
100
AcDbXrecord
280
     1
290
     1
  0
XRECORD
  5
150F
102
{ACAD_REACTORS
330
150E
102
}
330
150E
100
AcDbXrecord
280
     1
290
     1
  0
XRECORD
  5
1511
102
{ACAD_REACTORS
330
1510
102
}
330
1510
100
AcDbXrecord
280
     1
290
     1
  0
XRECORD
  5
1515
102
{ACAD_REACTORS
330
1514
102
}
330
1514
100
AcDbXrecord
280
     1
290
     1
  0
XRECORD
  5
1517
102
{ACAD_REACTORS
330
1516
102
}
330
1516
100
AcDbXrecord
280
     1
290
     1
  0
XRECORD
  5
1519
102
{ACAD_REACTORS
330
1518
102
}
330
1518
100
AcDbXrecord
280
     1
290
     1
  0
DICTIONARY
  5
4DB0
102
{ACAD_REACTORS
330
540
102
}
330
540
100
AcDbDictionary
281
     1
  3
ACAD_ASSOCNETWORK
350
4DB1
  0
XRECORD
  5
541
102
{ACAD_REACTORS
330
540
102
}
330
540
100
AcDbXrecord
280
     1
340
2
  0
SORTENTSTABLE
  5
30D6
102
{ACAD_REACTORS
330
540
102
}
330
540
100
AcDbSortentsTable
330
2
331
47
  5
47
331
23BC
  5
23BC
331
2338
  5
2338
331
CAE
  5
CAE
331
237A
  5
237A
331
2325
  5
2325
331
268A
  5
268A
331
54
  5
54
331
F9
  5
F9
331
23A7
  5
23A7
331
2A
  5
2A
331
234A
  5
234A
331
2697
  5
2697
331
1C
  5
1C
331
B1
  5
B1
331
AF
  5
AF
331
2399
  5
2399
331
3F
  5
3F
331
D4
  5
D4
331
106
  5
106
331
23B4
  5
23B4
331
17
  5
17
331
D8
  5
D8
331
231D
  5
231D
331
31
  5
31
331
6EC
  5
6EC
331
121
  5
121
331
4C
  5
4C
331
2397
  5
2397
331
268F
  5
268F
331
59
  5
59
331
2F
  5
2F
331
234F
  5
234F
331
21
  5
21
331
239E
  5
239E
331
DD
  5
DD
331
2377
  5
2377
331
2381
  5
2381
331
23AB
  5
23AB
331
2314
  5
2314
331
2347
  5
2347
331
43
  5
43
331
E8
  5
E8
331
5E
  5
5E
331
61
  5
61
331
2321
  5
2321
331
50
  5
50
331
26
  5
26
331
BB
  5
BB
331
E5
  5
E5
331
23A3
  5
23A3
331
230C
  5
230C
331
18
  5
18
331
AB
  5
AB
331
23C5
  5
23C5
331
3B
  5
3B
331
13
  5
13
331
6E8
  5
6E8
331
2393
  5
2393
331
48
  5
48
331
2339
  5
2339
331
2670
  5
2670
331
55
  5
55
331
20C
  5
20C
331
2B
  5
2B
331
234B
  5
234B
331
B2
  5
B2
331
239A
  5
239A
331
D5
  5
D5
331
23B5
  5
23B5
331
D9
  5
D9
331
231E
  5
231E
331
32
  5
32
331
6ED
  5
6ED
331
4D
  5
4D
331
5A
  5
5A
331
2330
  5
2330
331
2350
  5
2350
331
B7
  5
B7
331
22
  5
22
331
232C
  5
232C
331
DE
  5
DE
331
23C1
  5
23C1
331
37
  5
37
331
215
  5
215
331
44
  5
44
331
5F
  5
5F
331
2335
  5
2335
331
62
  5
62
331
2322
  5
2322
331
51
  5
51
331
27
  5
27
331
230D
  5
230D
331
19
  5
19
331
AC
  5
AC
331
3C
  5
3C
331
23B1
  5
23B1
331
14
  5
14
331
267F
  5
267F
331
49
  5
49
331
23BE
  5
23BE
331
2327
  5
2327
331
237C
  5
237C
331
2671
  5
2671
331
56
  5
56
331
2C
  5
2C
331
234C
  5
234C
331
B3
  5
B3
331
1E
  5
1E
331
239B
  5
239B
331
D6
  5
D6
331
2328
  5
2328
331
33
  5
33
331
6EE
  5
6EE
331
4E
  5
4E
331
296D
  5
296D
331
233F
  5
233F
331
40
  5
40
331
5B
  5
5B
331
2331
  5
2331
331
B8
  5
B8
331
23
  5
23
331
232D
  5
232D
331
38
  5
38
331
23AD
  5
23AD
331
2D1
  5
2D1
331
216
  5
216
331
267B
  5
267B
331
45
  5
45
331
23BA
  5
23BA
331
2336
  5
2336
331
2378
  5
2378
331
52
  5
52
331
E7
  5
E7
331
28
  5
28
331
230E
  5
230E
331
2695
  5
2695
331
1A
  5
1A
331
3D
  5
3D
331
23B2
  5
23B2
331
6EA
  5
6EA
331
2395
  5
2395
331
4A
  5
4A
331
23BF
  5
23BF
331
233B
  5
233B
331
268D
  5
268D
331
57
  5
57
331
234D
  5
234D
331
B4
  5
B4
331
13A5
  5
13A5
331
1F
  5
1F
331
239C
  5
239C
331
D7
  5
D7
331
2329
  5
2329
331
23B7
  5
23B7
331
DB
  5
DB
331
6EF
  5
6EF
331
23A9
  5
23A9
331
4F
  5
4F
331
296E
  5
296E
331
2345
  5
2345
331
41
  5
41
331
5C
  5
5C
331
2332
  5
2332
331
2684
  5
2684
331
14A6
  5
14A6
331
24
  5
24
331
23A1
  5
23A1
331
232E
  5
232E
331
2691
  5
2691
331
23C3
  5
23C3
331
23AE
  5
23AE
331
267C
  5
267C
331
46
  5
46
331
2391
  5
2391
331
23BB
  5
23BB
331
2324
  5
2324
331
53
  5
53
331
23A6
  5
23A6
331
29
  5
29
331
2349
  5
2349
331
230F
  5
230F
331
2696
  5
2696
331
1B
  5
1B
331
B0
  5
B0
331
AE
  5
AE
331
2398
  5
2398
331
3E
  5
3E
331
D3
  5
D3
331
23B3
  5
23B3
331
6EB
  5
6EB
331
120
  5
120
331
4B
  5
4B
331
2396
  5
2396
331
233C
  5
233C
331
2341
  5
2341
331
268E
  5
268E
331
58
  5
58
331
234E
  5
234E
331
2680
  5
2680
331
B5
  5
B5
331
13A6
  5
13A6
331
20
  5
20
331
232A
  5
232A
331
DC
  5
DC
331
2376
  5
2376
331
23AA
  5
23AA
331
C95
  5
C95
331
296F
  5
296F
331
2346
  5
2346
331
42
  5
42
331
5D
  5
5D
331
2333
  5
2333
331
60
  5
60
331
25
  5
25
331
BA
  5
BA
331
23A2
  5
23A2
331
148E
  5
148E
331
232F
  5
232F
331
2692
  5
2692
331
3A
  5
3A
331
12
  5
12
  0
XRECORD
  5
548
102
{ACAD_REACTORS
330
547
102
}
330
547
100
AcDbXrecord
280
     1
340
546
  0
XRECORD
  5
54E
102
{ACAD_REACTORS
330
54D
102
}
330
54D
100
AcDbXrecord
280
     1
340
54C
  0
DICTIONARY
  5
4E5C
102
{ACAD_REACTORS
330
4E5B
102
}
330
4E5B
100
AcDbDictionary
280
     1
281
     1
  3
Edit
360
4E5D
  0
DICTIONARY
  5
4E5F
102
{ACAD_REACTORS
330
4E5E
102
}
330
4E5E
100
AcDbDictionary
280
     1
281
     1
  3
Edit
360
4E60
  0
ACDBASSOCNETWORK
  5
4DB3
102
{ACAD_REACTORS
330
4DB2
102
}
330
4DB2
100
AcDbAssocAction
 90
        1
 90
        1
330
0
360
0
 90
        0
 90
        0
 90
        0
100
AcDbAssocNetwork
 90
        0
 90
        1
 90
        1
330
4DB1
 90
        1
330
4DB1
  0
ACDBDETAILVIEWSTYLE
  5
14FD
102
{ACAD_XDICTIONARY
360
4E59
102
}
102
{ACAD_REACTORS
330
14FC
102
}
330
14FC
100
AcDbModelDocViewStyle
 70
     0
  3
Metric50
290
     0
100
AcDbDetailViewStyle
 70
     0
 71
     0
 90
        3
 71
     1
340
9
 40
5.0
340
0
 40
5.0
300

 40
0.0
280
     1
 71
     2
340
8
 90
       25
 71
     3
340
9
 40
5.0
 90
        0
 40
15.0
 90
        1
300
%<\AcVar ViewDetailId>% (%<\AcVar ViewScale \f "%sn">%)
 71
     4
340
8
 90
       25
340
8
 90
       25
280
     0
  0
LAYOUT
  5
54B
102
{ACAD_XDICTIONARY
360
4E20
102
}
102
{ACAD_REACTORS
330
545
102
}
330
545
100
AcDbPlotSettings
  1

  2
None
  4

  6

 40
0.0
 41
0.0
 42
0.0
 43
0.0
 44
0.0
 45
0.0
 46
0.0
 47
0.0
 48
0.0
 49
0.0
140
0.0
141
0.0
142
1.0
143
1.0
 70
   688
 72
     0
 73
     0
 74
     5
  7
monochrome.ctb
 75
    16
147
1.0
148
0.0
149
0.0
100
AcDbLayout
  1
Layout1
 70
     1
 71
     1
 10
0.0
 20
0.0
 11
12.0
 21
9.0
 12
0.0
 22
0.0
 32
0.0
 14
0.0
 24
0.0
 34
0.0
 15
0.0
 25
0.0
 35
0.0
146
0.0
 13
0.0
 23
0.0
 33
0.0
 16
1.0
 26
0.0
 36
0.0
 17
0.0
 27
1.0
 37
0.0
 76
     0
330
546
  0
LAYOUT
  5
551
102
{ACAD_XDICTIONARY
360
4E22
102
}
102
{ACAD_REACTORS
330
545
102
}
330
545
100
AcDbPlotSettings
  1

  2
None
  4

  6

 40
0.0
 41
0.0
 42
0.0
 43
0.0
 44
0.0
 45
0.0
 46
0.0
 47
0.0
 48
0.0
 49
0.0
140
0.0
141
0.0
142
1.0
143
1.0
 70
   688
 72
     0
 73
     0
 74
     5
  7
monochrome.ctb
 75
    16
147
1.0
148
0.0
149
0.0
100
AcDbLayout
  1
Layout2
 70
     1
 71
     2
 10
0.0
 20
0.0
 11
12.0
 21
9.0
 12
0.0
 22
0.0
 32
0.0
 14
0.0
 24
0.0
 34
0.0
 15
0.0
 25
0.0
 35
0.0
146
0.0
 13
0.0
 23
0.0
 33
0.0
 16
1.0
 26
0.0
 36
0.0
 17
0.0
 27
1.0
 37
0.0
 76
     0
330
54C
  0
LAYOUT
  5
544
102
{ACAD_XDICTIONARY
360
4E1E
102
}
102
{ACAD_REACTORS
330
545
102
}
330
545
100
AcDbPlotSettings
  1

  2
EPSON LP-9400
  4
A4
  6

 40
5.873749732971191
 41
5.873747825622557
 42
5.873748779296875
 43
5.873748779296875
 44
209.9733276367186
 45
297.0106506347656
 46
2.339999999999998
 47
0.0
 48
0.0
 49
0.0
140
0.0
141
0.0
142
1.0
143
9.816891609963192
 70
 11956
 72
     1
 73
     1
 74
     1
  7
monochrome.ctb
 75
     0
147
0.1018652379725877
148
1264.94917075748
149
959.6633564695521
100
AcDbLayout
  1
Model
 70
     1
 71
     0
 10
0.0
 20
0.0
 11
12.0
 21
9.0
 12
0.0
 22
0.0
 32
0.0
 14
0.0
 24
0.0
 34
0.0
 15
0.0
 25
0.0
 35
0.0
146
0.0
 13
0.0
 23
0.0
 33
0.0
 16
1.0
 26
0.0
 36
0.0
 17
0.0
 27
1.0
 37
0.0
 76
     0
330
2
331
14AF
  0
MATERIAL
  5
14BA
102
{ACAD_XDICTIONARY
360
14BB
102
}
102
{ACAD_REACTORS
330
14B1
102
}
330
14B1
100
AcDbMaterial
  1
ByBlock
 72
     0
 43
0.0008202099737533
 43
0.0
 43
0.0
 43
0.0
 43
0.0
 43
0.0008202099737533
 43
0.0
 43
0.0
 43
0.0
 43
0.0
 43
1.0
 43
0.0
 43
0.0
 43
0.0
 43
0.0
 43
1.0
 77
     0
 47
0.0008202099737533
 47
0.0
 47
0.0
 47
0.0
 47
0.0
 47
0.0008202099737533
 47
0.0
 47
0.0
 47
0.0
 47
0.0
 47
1.0
 47
0.0
 47
0.0
 47
0.0
 47
0.0
 47
1.0
171
     0
 49
0.0008202099737533
 49
0.0
 49
0.0
 49
0.0
 49
0.0
 49
0.0008202099737533
 49
0.0
 49
0.0
 49
0.0
 49
0.0
 49
1.0
 49
0.0
 49
0.0
 49
0.0
 49
0.0
 49
1.0
175
     0
142
0.0008202099737533
142
0.0
142
0.0
142
0.0
142
0.0
142
0.0008202099737533
142
0.0
142
0.0
142
0.0
142
0.0
142
1.0
142
0.0
142
0.0
142
0.0
142
0.0
142
1.0
179
     0
144
0.0008202099737533
144
0.0
144
0.0
144
0.0
144
0.0
144
0.0008202099737533
144
0.0
144
0.0
144
0.0
144
0.0
144
1.0
144
0.0
144
0.0
144
0.0
144
0.0
144
1.0
147
0.0008202099737533
147
0.0
147
0.0
147
0.0
147
0.0
147
0.0008202099737533
147
0.0
147
0.0
147
0.0
147
0.0
147
1.0
147
0.0
147
0.0
147
0.0
147
0.0
147
1.0
  0
MATERIAL
  5
14B2
102
{ACAD_XDICTIONARY
360
14B3
102
}
102
{ACAD_REACTORS
330
14B1
102
}
330
14B1
100
AcDbMaterial
  1
ByLayer
 72
     0
 43
0.0008202099737533
 43
0.0
 43
0.0
 43
0.0
 43
0.0
 43
0.0008202099737533
 43
0.0
 43
0.0
 43
0.0
 43
0.0
 43
1.0
 43
0.0
 43
0.0
 43
0.0
 43
0.0
 43
1.0
 77
     0
 47
0.0008202099737533
 47
0.0
 47
0.0
 47
0.0
 47
0.0
 47
0.0008202099737533
 47
0.0
 47
0.0
 47
0.0
 47
0.0
 47
1.0
 47
0.0
 47
0.0
 47
0.0
 47
0.0
 47
1.0
171
     0
 49
0.0008202099737533
 49
0.0
 49
0.0
 49
0.0
 49
0.0
 49
0.0008202099737533
 49
0.0
 49
0.0
 49
0.0
 49
0.0
 49
1.0
 49
0.0
 49
0.0
 49
0.0
 49
0.0
 49
1.0
175
     0
142
0.0008202099737533
142
0.0
142
0.0
142
0.0
142
0.0
142
0.0008202099737533
142
0.0
142
0.0
142
0.0
142
0.0
142
1.0
142
0.0
142
0.0
142
0.0
142
0.0
142
1.0
179
     0
144
0.0008202099737533
144
0.0
144
0.0
144
0.0
144
0.0
144
0.0008202099737533
144
0.0
144
0.0
144
0.0
144
0.0
144
1.0
144
0.0
144
0.0
144
0.0
144
0.0
144
1.0
147
0.0008202099737533
147
0.0
147
0.0
147
0.0
147
0.0
147
0.0008202099737533
147
0.0
147
0.0
147
0.0
147
0.0
147
1.0
147
0.0
147
0.0
147
0.0
147
0.0
147
1.0
  0
MATERIAL
  5
14C2
102
{ACAD_XDICTIONARY
360
14C3
102
}
102
{ACAD_REACTORS
330
14B1
102
}
330
14B1
100
AcDbMaterial
  1
Global
 72
     0
 43
0.0008202099737533
 43
0.0
 43
0.0
 43
0.0
 43
0.0
 43
0.0008202099737533
 43
0.0
 43
0.0
 43
0.0
 43
0.0
 43
1.0
 43
0.0
 43
0.0
 43
0.0
 43
0.0
 43
1.0
 77
     0
 47
0.0008202099737533
 47
0.0
 47
0.0
 47
0.0
 47
0.0
 47
0.0008202099737533
 47
0.0
 47
0.0
 47
0.0
 47
0.0
 47
1.0
 47
0.0
 47
0.0
 47
0.0
 47
0.0
 47
1.0
171
     0
 49
0.0008202099737533
 49
0.0
 49
0.0
 49
0.0
 49
0.0
 49
0.0008202099737533
 49
0.0
 49
0.0
 49
0.0
 49
0.0
 49
1.0
 49
0.0
 49
0.0
 49
0.0
 49
0.0
 49
1.0
175
     0
142
0.0008202099737533
142
0.0
142
0.0
142
0.0
142
0.0
142
0.0008202099737533
142
0.0
142
0.0
142
0.0
142
0.0
142
1.0
142
0.0
142
0.0
142
0.0
142
0.0
142
1.0
179
     0
144
0.0008202099737533
144
0.0
144
0.0
144
0.0
144
0.0
144
0.0008202099737533
144
0.0
144
0.0
144
0.0
144
0.0
144
1.0
144
0.0
144
0.0
144
0.0
144
0.0
144
1.0
147
0.0008202099737533
147
0.0
147
0.0
147
0.0
147
0.0
147
0.0008202099737533
147
0.0
147
0.0
147
0.0
147
0.0
147
1.0
147
0.0
147
0.0
147
0.0
147
0.0
147
1.0
  0
MLEADERSTYLE
  5
14F9
102
{ACAD_XDICTIONARY
360
4E55
102
}
102
{ACAD_REACTORS
330
14F8
102
}
330
14F8
100
AcDbMLeaderStyle
170
     2
171
     1
172
     0
 90
        2
 40
0.0
 41
0.0
173
     1
 91
-1056964608
340
556
 92
       -2
290
     1
 42
2.0
291
     1
 43
0.36
  3
Standard
 44
4.0
300

342
9
174
     1
178
     6
175
     1
176
     0
 93
-1056964608
 45
4.0
292
     0
297
     0
 46
4.0
 94
-1056964608
 47
1.0
 49
1.0
140
1.0
293
     1
141
0.0
294
     1
177
     0
142
1.0
295
     0
296
     0
143
0.125
1001
ACAD_MLEADERVER
1070
     2
  0
MLINESTYLE
  5
562
102
{ACAD_REACTORS
330
560
102
}
330
560
100
AcDbMlineStyle
  2
STANDARD
 70
     0
  3

 62
   256
 51
90.0
 52
90.0
 71
     2
 49
0.5
 62
   256
  6
BYLAYER
 49
-0.5
 62
   256
  6
BYLAYER
  0
ACDBPLACEHOLDER
  5
5
102
{ACAD_REACTORS
330
6
102
}
330
6
  0
SCALE
  5
14E7
102
{ACAD_REACTORS
330
14E6
102
}
330
14E6
100
AcDbScale
 70
     0
300
1:1
140
1.0
141
1.0
290
     1
  0
SCALE
  5
14E8
102
{ACAD_REACTORS
330
14E6
102
}
330
14E6
100
AcDbScale
 70
     0
300
1:2
140
1.0
141
2.0
290
     0
  0
SCALE
  5
14E9
102
{ACAD_REACTORS
330
14E6
102
}
330
14E6
100
AcDbScale
 70
     0
300
1:4
140
1.0
141
4.0
290
     0
  0
SCALE
  5
14EA
102
{ACAD_REACTORS
330
14E6
102
}
330
14E6
100
AcDbScale
 70
     0
300
1:5
140
1.0
141
5.0
290
     0
  0
SCALE
  5
14EB
102
{ACAD_REACTORS
330
14E6
102
}
330
14E6
100
AcDbScale
 70
     0
300
1:8
140
1.0
141
8.0
290
     0
  0
SCALE
  5
14EC
102
{ACAD_REACTORS
330
14E6
102
}
330
14E6
100
AcDbScale
 70
     0
300
1:10
140
1.0
141
10.0
290
     0
  0
SCALE
  5
14ED
102
{ACAD_REACTORS
330
14E6
102
}
330
14E6
100
AcDbScale
 70
     0
300
1:16
140
1.0
141
16.0
290
     0
  0
SCALE
  5
14EE
102
{ACAD_REACTORS
330
14E6
102
}
330
14E6
100
AcDbScale
 70
     0
300
1:20
140
1.0
141
20.0
290
     0
  0
SCALE
  5
14EF
102
{ACAD_REACTORS
330
14E6
102
}
330
14E6
100
AcDbScale
 70
     0
300
1:30
140
1.0
141
30.0
290
     0
  0
SCALE
  5
14F0
102
{ACAD_REACTORS
330
14E6
102
}
330
14E6
100
AcDbScale
 70
     0
300
1:40
140
1.0
141
40.0
290
     0
  0
SCALE
  5
14F1
102
{ACAD_REACTORS
330
14E6
102
}
330
14E6
100
AcDbScale
 70
     0
300
1:50
140
1.0
141
50.0
290
     0
  0
SCALE
  5
14F2
102
{ACAD_REACTORS
330
14E6
102
}
330
14E6
100
AcDbScale
 70
     0
300
1:100
140
1.0
141
100.0
290
     0
  0
SCALE
  5
14F3
102
{ACAD_REACTORS
330
14E6
102
}
330
14E6
100
AcDbScale
 70
     0
300
2:1
140
2.0
141
1.0
290
     0
  0
SCALE
  5
14F4
102
{ACAD_REACTORS
330
14E6
102
}
330
14E6
100
AcDbScale
 70
     0
300
4:1
140
4.0
141
1.0
290
     0
  0
SCALE
  5
14F5
102
{ACAD_REACTORS
330
14E6
102
}
330
14E6
100
AcDbScale
 70
     0
300
8:1
140
8.0
141
1.0
290
     0
  0
SCALE
  5
14F6
102
{ACAD_REACTORS
330
14E6
102
}
330
14E6
100
AcDbScale
 70
     0
300
10:1
140
10.0
141
1.0
290
     0
  0
SCALE
  5
14F7
102
{ACAD_REACTORS
330
14E6
102
}
330
14E6
100
AcDbScale
 70
     0
300
100:1
140
100.0
141
1.0
290
     0
  0
ACDBSECTIONVIEWSTYLE
  5
14FB
102
{ACAD_XDICTIONARY
360
4E57
102
}
102
{ACAD_REACTORS
330
14FA
102
}
330
14FA
100
AcDbModelDocViewStyle
 70
     0
  3
Metric50
290
     0
100
AcDbSectionViewStyle
 70
     0
 71
     0
 90
      102
 71
     1
340
9
 40
5.0
340
0
340
0
 40
5.0
300
I, O, Q, S, X, Z
 40
10.0
 90
        0
 40
2.5
 90
        0
 71
     2
340
8
 90
       25
340
8
 90
       50
 40
5.0
 40
2.5
 40
5.0
 71
     3
340
9
 40
5.0
 90
        0
 40
15.0
 90
        1
300
%<\AcVar ViewSectionStartId>%-%<\AcVar ViewSectionEndId>% (%<\AcVar ViewScale \f "%sn">%)
 71
     4
300
ANSI31
 40
1.0
 90
        0
290
     0
290
     0
 90
        6
 40
0.0
 40
1.570796326794896
 40
0.2617993877991494
 40
1.308996938995747
 40
-0.2617993877991494
 40
1.832595714594045
  0
TABLESTYLE
  5
14E5
102
{ACAD_XDICTIONARY
360
316F
102
}
102
{ACAD_REACTORS
330
14E4
102
}
330
14E4
100
AcDbTableStyle
  3
Standard
 70
     0
 71
     0
 40
1.5
 41
1.5
280
     0
281
     0
  7
Standard
140
4.5
170
     2
 62
     0
 63
     7
283
     0
274
    -2
284
     1
 64
     0
275
    -2
285
     1
 65
     0
276
    -2
286
     1
 66
     0
277
    -2
287
     1
 67
     0
278
    -2
288
     1
 68
     0
279
    -2
289
     1
 69
     0
  7
Standard
140
6.0
170
     5
 62
     0
 63
     7
283
     0
274
    -2
284
     1
 64
     0
275
    -2
285
     1
 65
     0
276
    -2
286
     1
 66
     0
277
    -2
287
     1
 67
     0
278
    -2
288
     1
 68
     0
279
    -2
289
     1
 69
     0
  7
Standard
140
4.5
170
     5
 62
     0
 63
     7
283
     0
274
    -2
284
     1
 64
     0
275
    -2
285
     1
 65
     0
276
    -2
286
     1
 66
     0
277
    -2
287
     1
 67
     0
278
    -2
288
     1
 68
     0
279
    -2
289
     1
 69
     0
  0
VISUALSTYLE
  5
14D0
102
{ACAD_XDICTIONARY
360
4E2E
102
}
102
{ACAD_REACTORS
330
14CA
102
}
330
14CA
100
AcDbVisualStyle
  2

 70
     4
 71
     0
 72
     2
 73
     0
 90
        0
 40
-0.6
 41
-30.0
 62
     5
 63
     7
 74
     1
 91
        4
 64
     7
 65
   257
 75
     1
175
     1
 42
1.0
 92
        0
 66
   257
 43
1.0
 76
     1
 77
     6
 78
     2
 67
     7
 79
     5
170
     0
171
     0
290
     0
174
     0
 93
        1
 44
0.0
173
     0
291
     0
 45
0.0
1001
ACAD
1000
AcDbSavedByObjectVersion
1070
     0
  0
VISUALSTYLE
  5
14CF
102
{ACAD_XDICTIONARY
360
4E2C
102
}
102
{ACAD_REACTORS
330
14CA
102
}
330
14CA
100
AcDbVisualStyle
  2

 70
     7
 71
     1
 72
     0
 73
     1
 90
        0
 40
-0.6
 41
-30.0
 62
     5
 63
     7
 74
     0
 91
        4
 64
     7
 65
   257
 75
     1
175
     1
 42
1.0
 92
        8
 66
     7
 43
1.0
 76
     1
 77
     6
 78
     2
 67
     7
 79
     5
170
     0
171
     0
290
     0
174
     0
 93
        1
 44
0.0
173
     0
291
     1
 45
0.0
1001
ACAD
1000
AcDbSavedByObjectVersion
1070
     0
  0
VISUALSTYLE
  5
14D6
102
{ACAD_XDICTIONARY
360
4E3A
102
}
102
{ACAD_REACTORS
330
14CA
102
}
330
14CA
100
AcDbVisualStyle
  2

 70
    12
 71
     2
 72
     2
 73
     0
 90
        0
 40
-0.6
 41
-30.0
 62
     5
 63
     7
 74
     1
 91
        4
 64
     7
 65
   257
 75
     1
175
     1
 42
1.0
 92
        8
 66
     7
 43
1.0
 76
     1
 77
     6
 78
     2
 67
     7
 79
     5
170
     0
171
     0
290
     0
174
     0
 93
        1
 44
50.0
173
     0
291
     1
 45
0.0
1001
ACAD
1000
AcDbSavedByObjectVersion
1070
     0
  0
VISUALSTYLE
  5
14DA
102
{ACAD_XDICTIONARY
360
4E42
102
}
102
{ACAD_REACTORS
330
14CA
102
}
330
14CA
100
AcDbVisualStyle
  2

 70
    16
 71
     2
 72
     2
 73
     3
 90
        0
 40
-0.6
 41
-30.0
 62
     5
 63
     8
 74
     1
 91
        4
 64
     7
 65
   257
 75
     1
175
     1
 42
1.0
 92
        8
 66
     8
 43
1.0
 76
     1
 77
     6
 78
     2
 67
     7
 79
     5
170
     0
171
     0
290
     0
174
     0
 93
        1
 44
0.0
173
     0
291
     1
 45
0.0
1001
ACAD
1000
AcDbSavedByObjectVersion
1070
     0
  0
VISUALSTYLE
  5
14D3
102
{ACAD_XDICTIONARY
360
4E34
102
}
102
{ACAD_REACTORS
330
14CA
102
}
330
14CA
100
AcDbVisualStyle
  2

 70
     9
 71
     3
 72
     2
 73
     0
 90
        0
 40
-0.6
 41
-30.0
 62
     5
 63
     7
 74
     2
 91
        2
 64
     7
 65
   257
 75
     1
175
     1
 42
179.0
 92
        8
 66
     7
 43
1.0
 76
     1
 77
     6
 78
     2
 67
     7
 79
     3
170
     0
171
     0
290
     0
174
     0
 93
        1
 44
0.0
173
     0
291
     0
 45
0.0
1001
ACAD
1000
AcDbSavedByObjectVersion
1070
     0
  0
VISUALSTYLE
  5
14D5
102
{ACAD_XDICTIONARY
360
4E38
102
}
102
{ACAD_REACTORS
330
14CA
102
}
330
14CA
100
AcDbVisualStyle
  2

 70
    11
 71
     2
 72
     2
 73
     0
 90
        0
 40
-0.6
 41
-30.0
 62
     5
 63
     7
 74
     1
 91
        4
 64
     7
 65
   257
 75
     1
175
     1
 42
1.0
 92
        8
 66
     7
 43
1.0
 76
     1
 77
     6
 78
     2
 67
     7
 79
     5
170
     0
171
     0
290
     0
174
     0
 93
        1
 44
-50.0
173
     0
291
     1
 45
0.0
1001
ACAD
1000
AcDbSavedByObjectVersion
1070
     0
  0
VISUALSTYLE
  5
14E2
102
{ACAD_XDICTIONARY
360
4E52
102
}
102
{ACAD_REACTORS
330
14CA
102
}
330
14CA
100
AcDbVisualStyle
  2

 70
    22
 71
     2
 72
     2
 73
     0
 90
        0
 40
-0.6
 41
-30.0
 62
     5
 63
     7
 74
     1
 91
        4
 64
     7
 65
   257
 75
     1
175
     1
 42
1.0
 92
        8
 66
     7
 43
1.0
 76
     1
 77
     6
 78
     2
 67
     7
 79
     5
170
     0
171
     0
290
     0
174
     0
 93
        1
 44
0.0
173
     0
291
     1
 45
0.0
1001
ACAD
1000
AcDbSavedByObjectVersion
1070
     0
  0
VISUALSTYLE
  5
14D9
102
{ACAD_XDICTIONARY
360
4E40
102
}
102
{ACAD_REACTORS
330
14CA
102
}
330
14CA
100
AcDbVisualStyle
  2

 70
    15
 71
     2
 72
     2
 73
     0
 90
        0
 40
-0.6
 41
-30.0
 62
     5
 63
     7
 74
     1
 91
        4
 64
     7
 65
   257
 75
     1
175
     1
 42
1.0
 92
        8
 66
     7
 43
1.0
 76
     1
 77
     6
 78
     2
 67
     7
 79
     5
170
     0
171
     0
290
     0
174
     0
 93
        1
 44
0.0
173
     0
291
     1
 45
0.0
1001
ACAD
1000
AcDbSavedByObjectVersion
1070
     0
  0
VISUALSTYLE
  5
14CB
102
{ACAD_XDICTIONARY
360
4E24
102
}
102
{ACAD_REACTORS
330
14CA
102
}
330
14CA
100
AcDbVisualStyle
  2

 70
     0
 71
     2
 72
     1
 73
     1
 90
        2
 40
-0.6
 41
30.0
 62
     5
 63
     7
 74
     0
 91
        0
 64
     7
 65
   257
 75
     1
175
     1
 42
1.0
 92
        8
 66
     7
 43
1.0
 76
     1
 77
     6
 78
     2
 67
     7
 79
     5
170
     0
171
     0
290
     0
174
     0
 93
       13
 44
0.0
173
     0
291
     1
 45
0.0
1001
ACAD
1000
AcDbSavedByObjectVersion
1070
     0
  0
VISUALSTYLE
  5
14CC
102
{ACAD_XDICTIONARY
360
4E26
102
}
102
{ACAD_REACTORS
330
14CA
102
}
330
14CA
100
AcDbVisualStyle
  2

 70
     1
 71
     2
 72
     1
 73
     1
 90
        2
 40
-0.6
 41
30.0
 62
     5
 63
     7
 74
     1
 91
        0
 64
     7
 65
   257
 75
     1
175
     1
 42
1.0
 92
        0
 66
   257
 43
1.0
 76
     1
 77
     6
 78
     2
 67
     7
 79
     5
170
     0
171
     0
290
     0
174
     0
 93
       13
 44
0.0
173
     0
291
     1
 45
0.0
1001
ACAD
1000
AcDbSavedByObjectVersion
1070
     0
  0
VISUALSTYLE
  5
14CD
102
{ACAD_XDICTIONARY
360
4E28
102
}
102
{ACAD_REACTORS
330
14CA
102
}
330
14CA
100
AcDbVisualStyle
  2

 70
     2
 71
     2
 72
     2
 73
     1
 90
        2
 40
-0.6
 41
30.0
 62
     5
 63
     7
 74
     0
 91
        0
 64
     7
 65
   257
 75
     1
175
     1
 42
1.0
 92
        0
 66
     7
 43
1.0
 76
     1
 77
     6
 78
     2
 67
     7
 79
     5
170
     0
171
     0
290
     0
174
     0
 93
       13
 44
0.0
173
     0
291
     1
 45
0.0
1001
ACAD
1000
AcDbSavedByObjectVersion
1070
     0
  0
VISUALSTYLE
  5
14CE
102
{ACAD_XDICTIONARY
360
4E2A
102
}
102
{ACAD_REACTORS
330
14CA
102
}
330
14CA
100
AcDbVisualStyle
  2

 70
     3
 71
     2
 72
     2
 73
     1
 90
        2
 40
-0.6
 41
30.0
 62
     5
 63
     7
 74
     1
 91
        0
 64
     7
 65
   257
 75
     1
175
     1
 42
1.0
 92
        0
 66
   257
 43
1.0
 76
     1
 77
     6
 78
     2
 67
     7
 79
     5
170
     0
171
     0
290
     0
174
     0
 93
       13
 44
0.0
173
     0
291
     1
 45
0.0
1001
ACAD
1000
AcDbSavedByObjectVersion
1070
     0
  0
VISUALSTYLE
  5
14D2
102
{ACAD_XDICTIONARY
360
4E32
102
}
102
{ACAD_REACTORS
330
14CA
102
}
330
14CA
100
AcDbVisualStyle
  2

 70
     6
 71
     1
 72
     2
 73
     2
 90
        0
 40
-0.6
 41
-30.0
 62
     5
 63
     7
 74
     2
 91
        2
 64
     7
 65
   257
 75
     2
175
     1
 42
40.0
 92
        0
 66
   257
 43
1.0
 76
     1
 77
     6
 78
     2
 67
     7
 79
     3
170
     0
171
     0
290
     0
174
     0
 93
        1
 44
0.0
173
     0
291
     0
 45
0.0
1001
ACAD
1000
AcDbSavedByObjectVersion
1070
     0
  0
VISUALSTYLE
  5
14E0
102
{ACAD_XDICTIONARY
360
4E4E
102
}
102
{ACAD_REACTORS
330
14CA
102
}
330
14CA
100
AcDbVisualStyle
  2

 70
    20
 71
     2
 72
     2
 73
     0
 90
        0
 40
-0.6
 41
-30.0
 62
     5
 63
     7
 74
     1
 91
        4
 64
     7
 65
   257
 75
     1
175
     1
 42
1.0
 92
       10
 66
     7
 43
1.0
 76
     1
 77
     6
 78
     2
 67
     7
 79
     5
170
     0
171
     0
290
     0
174
     0
 93
        1
 44
0.0
173
     0
291
     1
 45
0.0
1001
ACAD
1000
AcDbSavedByObjectVersion
1070
     0
  0
VISUALSTYLE
  5
14D8
102
{ACAD_XDICTIONARY
360
4E3E
102
}
102
{ACAD_REACTORS
330
14CA
102
}
330
14CA
100
AcDbVisualStyle
  2

 70
    14
 71
     2
 72
     2
 73
     0
 90
        0
 40
-0.6
 41
-30.0
 62
     5
 63
     7
 74
     1
 91
        4
 64
     7
 65
   257
 75
     7
175
     7
 42
1.0
 92
        8
 66
     7
 43
1.0
 76
     1
 77
     6
 78
     2
 67
     7
 79
     5
170
     0
171
     0
290
     0
174
     0
 93
        1
 44
0.0
173
     0
291
     1
 45
0.0
1001
ACAD
1000
AcDbSavedByObjectVersion
1070
     0
  0
VISUALSTYLE
  5
14E1
102
{ACAD_XDICTIONARY
360
4E50
102
}
102
{ACAD_REACTORS
330
14CA
102
}
330
14CA
100
AcDbVisualStyle
  2

 70
    21
 71
     2
 72
     2
 73
     0
 90
        0
 40
-0.6
 41
-30.0
 62
     5
 63
     7
 74
     1
 91
        4
 64
     7
 65
   257
 75
     1
175
     1
 42
1.0
 92
        9
 66
     7
 43
1.0
 76
     1
 77
     6
 78
     2
 67
     7
 79
     5
170
     0
171
     0
290
     0
174
     0
 93
        1
 44
0.0
173
     0
291
     1
 45
0.0
1001
ACAD
1000
AcDbSavedByObjectVersion
1070
     0
  0
VISUALSTYLE
  5
14D4
102
{ACAD_XDICTIONARY
360
4E36
102
}
102
{ACAD_REACTORS
330
14CA
102
}
330
14CA
100
AcDbVisualStyle
  2

 70
     8
 71
     2
 72
     2
 73
     0
 90
        2
 40
-0.6
 41
30.0
 62
     5
 63
     7
 74
     0
 91
        0
 64
     7
 65
   257
 75
     1
175
     1
 42
1.0
 92
        8
 66
   257
 43
1.0
 76
     1
 77
     6
 78
     2
 67
     7
 79
     3
170
     0
171
     0
290
     0
174
     0
 93
       13
 44
0.0
173
     0
291
     0
 45
0.0
1001
ACAD
1000
AcDbSavedByObjectVersion
1070
     0
  0
VISUALSTYLE
  5
14DF
102
{ACAD_XDICTIONARY
360
4E4C
102
}
102
{ACAD_REACTORS
330
14CA
102
}
330
14CA
100
AcDbVisualStyle
  2

 70
    27
 71
     2
 72
     2
 73
     1
 90
        2
 40
-0.6
 41
30.0
 62
     5
 63
     7
 74
     0
 91
        4
 64
     7
 65
   257
 75
     1
175
     1
 42
1.0
 92
        8
 66
   257
 43
1.0
 76
     1
 77
     6
 78
     2
 67
     8
 79
     3
170
     0
171
     0
290
     0
174
     0
 93
        5
 44
0.0
173
     0
291
     0
 45
0.0
1001
ACAD
1000
AcDbSavedByObjectVersion
1070
     0
  0
VISUALSTYLE
  5
14DE
102
{ACAD_XDICTIONARY
360
4E4A
102
}
102
{ACAD_REACTORS
330
14CA
102
}
330
14CA
100
AcDbVisualStyle
  2

 70
    26
 71
     2
 72
     2
 73
     1
 90
        2
 40
-0.6
 41
30.0
 62
     5
 63
     7
 74
     1
 91
       10
 64
     7
 65
   257
 75
     2
175
     1
 42
1.0
 92
        8
 66
   257
 43
1.0
 76
     1
 77
     6
 78
     2
 67
     7
 79
     3
170
     0
171
     0
290
     0
174
     0
 93
        5
 44
0.0
173
     0
291
     0
 45
0.0
1001
ACAD
1000
AcDbSavedByObjectVersion
1070
     0
  0
VISUALSTYLE
  5
14DB
102
{ACAD_XDICTIONARY
360
4E44
102
}
102
{ACAD_REACTORS
330
14CA
102
}
330
14CA
100
AcDbVisualStyle
  2

 70
    23
 71
     2
 72
     2
 73
     3
 90
        0
 40
-0.6
 41
-30.0
 62
     5
 63
     7
 74
     2
 91
        2
 64
     7
 65
     7
 75
     1
175
     1
 42
40.0
 92
        8
 66
     7
 43
1.0
 76
     1
 77
     6
 78
     2
 67
     7
 79
     3
170
     0
171
     0
290
     0
174
     0
 93
        1
 44
0.0
173
     0
291
     0
 45
0.0
1001
ACAD
1000
AcDbSavedByObjectVersion
1070
     0
  0
VISUALSTYLE
  5
14DC
102
{ACAD_XDICTIONARY
360
4E46
102
}
102
{ACAD_REACTORS
330
14CA
102
}
330
14CA
100
AcDbVisualStyle
  2

 70
    24
 71
     1
 72
     2
 73
     2
 90
        0
 40
-0.6
 41
-30.0
 62
     5
 63
     7
 74
     2
 91
        2
 64
     7
 65
     7
 75
     1
175
     1
 42
40.0
 92
       11
 66
     7
 43
1.0
 76
     1
 77
     6
 78
     2
 67
     7
 79
     6
170
     0
171
     0
290
     0
174
     0
 93
        1
 44
0.0
173
     0
291
     0
 45
0.0
1001
ACAD
1000
AcDbSavedByObjectVersion
1070
     0
  0
VISUALSTYLE
  5
14D7
102
{ACAD_XDICTIONARY
360
4E3C
102
}
102
{ACAD_REACTORS
330
14CA
102
}
330
14CA
100
AcDbVisualStyle
  2

 70
    13
 71
     2
 72
     2
 73
     0
 90
        0
 40
-0.6
 41
-30.0
 62
     5
 63
     7
 74
     1
 91
        4
 64
     7
 65
   257
 75
     1
175
     1
 42
1.0
 92
       12
 66
     7
 43
1.0
 76
     1
 77
     6
 78
     2
 67
     7
 79
     5
170
     0
171
     0
290
     0
174
     0
 93
        1
 44
0.0
173
     0
291
     1
 45
0.0
1001
ACAD
1000
AcDbSavedByObjectVersion
1070
     0
  0
VISUALSTYLE
  5
14D1
102
{ACAD_XDICTIONARY
360
4E30
102
}
102
{ACAD_REACTORS
330
14CA
102
}
330
14CA
100
AcDbVisualStyle
  2

 70
     5
 71
     0
 72
     2
 73
     0
 90
        0
 40
-0.6
 41
-30.0
 62
     5
 63
     7
 74
     1
 91
        4
 64
     7
 65
   257
 75
     1
175
     1
 42
1.0
 92
        0
 66
   257
 43
1.0
 76
     1
 77
     6
 78
     2
 67
     7
 79
     3
170
     0
171
     0
290
     0
174
     0
 93
        1
 44
0.0
173
     0
291
     0
 45
0.0
1001
ACAD
1000
AcDbSavedByObjectVersion
1070
     0
  0
VISUALSTYLE
  5
14DD
102
{ACAD_XDICTIONARY
360
4E48
102
}
102
{ACAD_REACTORS
330
14CA
102
}
330
14CA
100
AcDbVisualStyle
  2

 70
    25
 71
     2
 72
     2
 73
     1
 90
        1
 40
0.5
 41
-30.0
 62
     5
 63
     7
 74
     1
 91
        0
 64
     7
 65
   257
 75
     1
175
     1
 42
1.0
 92
        8
 66
     7
 43
1.0
 76
     1
 77
     6
 78
     2
 67
     7
 79
     3
170
     0
171
     0
290
     0
174
     0
 93
       13
 44
0.0
173
     0
291
     0
 45
0.0
1001
ACAD
1000
AcDbSavedByObjectVersion
1070
     0
  0
DICTIONARYVAR
  5
31B9
102
{ACAD_REACTORS
330
11A3
102
}
330
11A3
100
DictionaryVariables
280
     0
  1
1:1
  0
DICTIONARYVAR
  5
31B6
102
{ACAD_REACTORS
330
11A3
102
}
330
11A3
100
DictionaryVariables
280
     0
  1
STANDARD
  0
DICTIONARYVAR
  5
31B5
102
{ACAD_REACTORS
330
11A3
102
}
330
11A3
100
DictionaryVariables
280
     0
  1
STANDARD
  0
DICTIONARYVAR
  5
31B7
102
{ACAD_REACTORS
330
11A3
102
}
330
11A3
100
DictionaryVariables
280
     0
  1
Metric50
  0
DICTIONARYVAR
  5
31B8
102
{ACAD_REACTORS
330
11A3
102
}
330
11A3
100
DictionaryVariables
280
     0
  1
Metric50
  0
DICTIONARYVAR
  5
31BB
102
{ACAD_REACTORS
330
11A3
102
}
330
11A3
100
DictionaryVariables
280
     0
  1
1
  0
DICTIONARYVAR
  5
31BA
102
{ACAD_REACTORS
330
11A3
102
}
330
11A3
100
DictionaryVariables
280
     0
  1
0
  0
DICTIONARYVAR
  5
11A4
102
{ACAD_REACTORS
330
11A3
102
}
330
11A3
100
DictionaryVariables
280
     0
  1
96
  0
DICTIONARYVAR
  5
4E1A
102
{ACAD_REACTORS
330
11A3
102
}
330
11A3
100
DictionaryVariables
280
     0
  1
2
  0
ACDBASSOCNETWORK
  5
4DB1
102
{ACAD_REACTORS
330
4DB0
102
}
330
4DB0
100
AcDbAssocAction
 90
        1
 90
        1
330
4DB3
360
0
 90
        1
 90
        0
 90
        0
100
AcDbAssocNetwork
 90
        0
 90
        2
 90
        2
360
4DB4
360
4DF1
 90
        2
330
4DB4
330
4DF1
  0
XRECORD
  5
4E5D
102
{ACAD_REACTORS
330
4E5C
102
}
330
4E5C
100
AcDbXrecord
280
     1
1070
     0
1070
     1
1070
     1
  0
XRECORD
  5
4E60
102
{ACAD_REACTORS
330
4E5F
102
}
330
4E5F
100
AcDbXrecord
280
     1
1070
     0
1070
     1
1070
     1
  0
DICTIONARY
  5
4E59
330
14FD
100
AcDbDictionary
280
     1
281
     1
  3
ACAD_XREC_ROUNDTRIP
360
4E5A
  0
DICTIONARY
  5
4E20
330
54B
100
AcDbDictionary
280
     1
281
     1
  3
ACAD_XREC_ROUNDTRIP
360
4E21
  0
DICTIONARY
  5
4E22
330
551
100
AcDbDictionary
280
     1
281
     1
  3
ACAD_XREC_ROUNDTRIP
360
4E23
  0
DICTIONARY
  5
4E1E
330
544
100
AcDbDictionary
280
     1
281
     1
  3
ACAD_XREC_ROUNDTRIP
360
4E1F
  0
DICTIONARY
  5
14BB
330
14BA
100
AcDbDictionary
280
     1
281
     1
  3
ACAD_XREC_ROUNDTRIP
360
4D38
  3
BUMPTILE
360
14BD
  3
DIFFUSETILE
360
14BC
  3
OPACITYTILE
360
14C0
  3
REFLECTIONTILE
360
14BF
  3
REFRACTIONTILE
360
14C1
  3
SPECULARTILE
360
14BE
  0
DICTIONARY
  5
14B3
330
14B2
100
AcDbDictionary
280
     1
281
     1
  3
ACAD_XREC_ROUNDTRIP
360
4D37
  3
BUMPTILE
360
14B5
  3
DIFFUSETILE
360
14B4
  3
OPACITYTILE
360
14B8
  3
REFLECTIONTILE
360
14B7
  3
REFRACTIONTILE
360
14B9
  3
SPECULARTILE
360
14B6
  0
DICTIONARY
  5
14C3
330
14C2
100
AcDbDictionary
280
     1
281
     1
  3
ACAD_XREC_ROUNDTRIP
360
4D39
  3
BUMPTILE
360
14C5
  3
DIFFUSETILE
360
14C4
  3
OPACITYTILE
360
14C8
  3
REFLECTIONTILE
360
14C7
  3
REFRACTIONTILE
360
14C9
  3
SPECULARTILE
360
14C6
  0
DICTIONARY
  5
4E55
330
14F9
100
AcDbDictionary
280
     1
281
     1
  3
ACAD_XREC_ROUNDTRIP
360
4E56
  0
DICTIONARY
  5
4E57
330
14FB
100
AcDbDictionary
280
     1
281
     1
  3
ACAD_XREC_ROUNDTRIP
360
4E58
  0
DICTIONARY
  5
316F
330
14E5
100
AcDbDictionary
280
     1
281
     1
  3
ACAD_ROUNDTRIP_2008_TABLESTYLE_CELLSTYLEMAP
360
4E1B
  3
ACAD_XREC_ROUNDTRIP
360
4E54
  0
DICTIONARY
  5
4E2E
330
14D0
100
AcDbDictionary
280
     1
281
     1
  3
ACAD_XREC_ROUNDTRIP
360
4E2F
  0
DICTIONARY
  5
4E2C
330
14CF
100
AcDbDictionary
280
     1
281
     1
  3
ACAD_XREC_ROUNDTRIP
360
4E2D
  0
DICTIONARY
  5
4E3A
330
14D6
100
AcDbDictionary
280
     1
281
     1
  3
ACAD_XREC_ROUNDTRIP
360
4E3B
  0
DICTIONARY
  5
4E42
330
14DA
100
AcDbDictionary
280
     1
281
     1
  3
ACAD_XREC_ROUNDTRIP
360
4E43
  0
DICTIONARY
  5
4E34
330
14D3
100
AcDbDictionary
280
     1
281
     1
  3
ACAD_XREC_ROUNDTRIP
360
4E35
  0
DICTIONARY
  5
4E38
330
14D5
100
AcDbDictionary
280
     1
281
     1
  3
ACAD_XREC_ROUNDTRIP
360
4E39
  0
DICTIONARY
  5
4E52
330
14E2
100
AcDbDictionary
280
     1
281
     1
  3
ACAD_XREC_ROUNDTRIP
360
4E53
  0
DICTIONARY
  5
4E40
330
14D9
100
AcDbDictionary
280
     1
281
     1
  3
ACAD_XREC_ROUNDTRIP
360
4E41
  0
DICTIONARY
  5
4E24
330
14CB
100
AcDbDictionary
280
     1
281
     1
  3
ACAD_XREC_ROUNDTRIP
360
4E25
  0
DICTIONARY
  5
4E26
330
14CC
100
AcDbDictionary
280
     1
281
     1
  3
ACAD_XREC_ROUNDTRIP
360
4E27
  0
DICTIONARY
  5
4E28
330
14CD
100
AcDbDictionary
280
     1
281
     1
  3
ACAD_XREC_ROUNDTRIP
360
4E29
  0
DICTIONARY
  5
4E2A
330
14CE
100
AcDbDictionary
280
     1
281
     1
  3
ACAD_XREC_ROUNDTRIP
360
4E2B
  0
DICTIONARY
  5
4E32
330
14D2
100
AcDbDictionary
280
     1
281
     1
  3
ACAD_XREC_ROUNDTRIP
360
4E33
  0
DICTIONARY
  5
4E4E
330
14E0
100
AcDbDictionary
280
     1
281
     1
  3
ACAD_XREC_ROUNDTRIP
360
4E4F
  0
DICTIONARY
  5
4E3E
330
14D8
100
AcDbDictionary
280
     1
281
     1
  3
ACAD_XREC_ROUNDTRIP
360
4E3F
  0
DICTIONARY
  5
4E50
330
14E1
100
AcDbDictionary
280
     1
281
     1
  3
ACAD_XREC_ROUNDTRIP
360
4E51
  0
DICTIONARY
  5
4E36
330
14D4
100
AcDbDictionary
280
     1
281
     1
  3
ACAD_XREC_ROUNDTRIP
360
4E37
  0
DICTIONARY
  5
4E4C
330
14DF
100
AcDbDictionary
280
     1
281
     1
  3
ACAD_XREC_ROUNDTRIP
360
4E4D
  0
DICTIONARY
  5
4E4A
330
14DE
100
AcDbDictionary
280
     1
281
     1
  3
ACAD_XREC_ROUNDTRIP
360
4E4B
  0
DICTIONARY
  5
4E44
330
14DB
100
AcDbDictionary
280
     1
281
     1
  3
ACAD_XREC_ROUNDTRIP
360
4E45
  0
DICTIONARY
  5
4E46
330
14DC
100
AcDbDictionary
280
     1
281
     1
  3
ACAD_XREC_ROUNDTRIP
360
4E47
  0
DICTIONARY
  5
4E3C
330
14D7
100
AcDbDictionary
280
     1
281
     1
  3
ACAD_XREC_ROUNDTRIP
360
4E3D
  0
DICTIONARY
  5
4E30
330
14D1
100
AcDbDictionary
280
     1
281
     1
  3
ACAD_XREC_ROUNDTRIP
360
4E31
  0
DICTIONARY
  5
4E48
330
14DD
100
AcDbDictionary
280
     1
281
     1
  3
ACAD_XREC_ROUNDTRIP
360
4E49
  0
ACDBASSOCACTION
  5
4DB4
330
4DB1
100
AcDbAssocAction
 90
        1
 90
        1
330
4DB1
360
4DB5
 90
        1
 90
        3
 90
        3
360
4DB8
360
4DB9
360
4DBA
  0
ACDBASSOCACTION
  5
4DF1
330
4DB1
100
AcDbAssocAction
 90
        1
 90
        1
330
4DB1
360
4DF2
 90
        2
 90
        3
 90
        3
360
4DF5
360
4DF6
360
4DF7
  0
XRECORD
  5
4E5A
102
{ACAD_REACTORS
330
4E59
102
}
330
4E59
100
AcDbXrecord
280
     1
102
DISPLAYNAME
  1
Metric50
102
FLAGS
 90
        0
  0
XRECORD
  5
4E21
102
{ACAD_REACTORS
330
4E20
102
}
330
4E20
100
AcDbXrecord
280
     1
102
SHADEPLOT
 70
     0
102
SHADEPLOTRESLEVEL
 70
     2
102
SHADEPLOTCUSTOMDPI
 70
   300
  0
XRECORD
  5
4E23
102
{ACAD_REACTORS
330
4E22
102
}
330
4E22
100
AcDbXrecord
280
     1
102
SHADEPLOT
 70
     0
102
SHADEPLOTRESLEVEL
 70
     2
102
SHADEPLOTCUSTOMDPI
 70
   300
  0
XRECORD
  5
4E1F
102
{ACAD_REACTORS
330
4E1E
102
}
330
4E1E
100
AcDbXrecord
280
     1
102
SHADEPLOT
 70
     0
102
SHADEPLOTRESLEVEL
 70
     2
102
SHADEPLOTCUSTOMDPI
 70
   300
  0
XRECORD
  5
4D38
102
{ACAD_REACTORS
330
14BB
102
}
330
14BB
100
AcDbXrecord
280
     1
102
MATERIAL
148
0.0
149
0.0
149
0.0
 93
        0
 94
      127
282
     0
 72
     0
 77
     0
171
     0
175
     0
179
     0
273
     0
  0
XRECORD
  5
14BD
102
{ACAD_REACTORS
330
14BB
102
}
330
14BB
100
AcDbXrecord
280
     1
270
     1
271
     1
  0
XRECORD
  5
14BC
102
{ACAD_REACTORS
330
14BB
102
}
330
14BB
100
AcDbXrecord
280
     1
270
     1
271
     1
  0
XRECORD
  5
14C0
102
{ACAD_REACTORS
330
14BB
102
}
330
14BB
100
AcDbXrecord
280
     1
270
     1
271
     1
  0
XRECORD
  5
14BF
102
{ACAD_REACTORS
330
14BB
102
}
330
14BB
100
AcDbXrecord
280
     1
270
     1
271
     1
  0
XRECORD
  5
14C1
102
{ACAD_REACTORS
330
14BB
102
}
330
14BB
100
AcDbXrecord
280
     1
270
     1
271
     1
  0
XRECORD
  5
14BE
102
{ACAD_REACTORS
330
14BB
102
}
330
14BB
100
AcDbXrecord
280
     1
270
     1
271
     1
  0
XRECORD
  5
4D37
102
{ACAD_REACTORS
330
14B3
102
}
330
14B3
100
AcDbXrecord
280
     1
102
MATERIAL
148
0.0
149
0.0
149
0.0
 93
        0
 94
      127
282
     0
 72
     0
 77
     0
171
     0
175
     0
179
     0
273
     0
  0
XRECORD
  5
14B5
102
{ACAD_REACTORS
330
14B3
102
}
330
14B3
100
AcDbXrecord
280
     1
270
     1
271
     1
  0
XRECORD
  5
14B4
102
{ACAD_REACTORS
330
14B3
102
}
330
14B3
100
AcDbXrecord
280
     1
270
     1
271
     1
  0
XRECORD
  5
14B8
102
{ACAD_REACTORS
330
14B3
102
}
330
14B3
100
AcDbXrecord
280
     1
270
     1
271
     1
  0
XRECORD
  5
14B7
102
{ACAD_REACTORS
330
14B3
102
}
330
14B3
100
AcDbXrecord
280
     1
270
     1
271
     1
  0
XRECORD
  5
14B9
102
{ACAD_REACTORS
330
14B3
102
}
330
14B3
100
AcDbXrecord
280
     1
270
     1
271
     1
  0
XRECORD
  5
14B6
102
{ACAD_REACTORS
330
14B3
102
}
330
14B3
100
AcDbXrecord
280
     1
270
     1
271
     1
  0
XRECORD
  5
4D39
102
{ACAD_REACTORS
330
14C3
102
}
330
14C3
100
AcDbXrecord
280
     1
102
MATERIAL
148
0.0
149
0.0
149
0.0
 93
        0
 94
      127
282
     0
 72
     0
 77
     0
171
     0
175
     0
179
     0
273
     0
  0
XRECORD
  5
14C5
102
{ACAD_REACTORS
330
14C3
102
}
330
14C3
100
AcDbXrecord
280
     1
270
     1
271
     1
  0
XRECORD
  5
14C4
102
{ACAD_REACTORS
330
14C3
102
}
330
14C3
100
AcDbXrecord
280
     1
270
     1
271
     1
  0
XRECORD
  5
14C8
102
{ACAD_REACTORS
330
14C3
102
}
330
14C3
100
AcDbXrecord
280
     1
270
     1
271
     1
  0
XRECORD
  5
14C7
102
{ACAD_REACTORS
330
14C3
102
}
330
14C3
100
AcDbXrecord
280
     1
270
     1
271
     1
  0
XRECORD
  5
14C9
102
{ACAD_REACTORS
330
14C3
102
}
330
14C3
100
AcDbXrecord
280
     1
270
     1
271
     1
  0
XRECORD
  5
14C6
102
{ACAD_REACTORS
330
14C3
102
}
330
14C3
100
AcDbXrecord
280
     1
270
     1
271
     1
  0
XRECORD
  5
4E56
102
{ACAD_REACTORS
330
4E55
102
}
330
4E55
100
AcDbXrecord
280
     1
102
ACAD_ROUNDTRIP_2012_MLEADER_STYLE
298
     1
  0
XRECORD
  5
4E58
102
{ACAD_REACTORS
330
4E57
102
}
330
4E57
100
AcDbXrecord
280
     1
102
DISPLAYNAME
  1
Metric50
102
FLAGS
 90
        0
  0
CELLSTYLEMAP
  5
4E1B
102
{ACAD_REACTORS
330
316F
102
}
330
316F
100
AcDbCellStyleMap
 90
        3
300
CELLSTYLE
  1
TABLEFORMAT_BEGIN
 90
        5
170
     1
 91
        0
 92
    32768
 62
   257
 93
        1
300
CONTENTFORMAT
  1
CONTENTFORMAT_BEGIN
 90
        0
 91
        0
 92
      512
 93
        0
300

 40
0.0
140
1.0
 94
        5
 62
     0
340
9
144
6.0
309
CONTENTFORMAT_END
171
     1
301
MARGIN
  1
CELLMARGIN_BEGIN
 40
1.5
 40
1.5
 40
1.5
 40
1.5
 40
0.18
 40
0.18
309
CELLMARGIN_END
 94
        6
 95
        1
302
GRIDFORMAT
  1
GRIDFORMAT_BEGIN
 90
        0
 91
        1
 62
     0
 92
       -2
340
0
 93
        0
 40
1.125
309
GRIDFORMAT_END
 95
        2
302
GRIDFORMAT
  1
GRIDFORMAT_BEGIN
 90
        0
 91
        1
 62
     0
 92
       -2
340
0
 93
        0
 40
1.125
309
GRIDFORMAT_END
 95
        4
302
GRIDFORMAT
  1
GRIDFORMAT_BEGIN
 90
        0
 91
        1
 62
     0
 92
       -2
340
0
 93
        0
 40
1.125
309
GRIDFORMAT_END
 95
        8
302
GRIDFORMAT
  1
GRIDFORMAT_BEGIN
 90
        0
 91
        1
 62
     0
 92
       -2
340
0
 93
        0
 40
1.125
309
GRIDFORMAT_END
 95
       16
302
GRIDFORMAT
  1
GRIDFORMAT_BEGIN
 90
        0
 91
        1
 62
     0
 92
       -2
340
0
 93
        0
 40
1.125
309
GRIDFORMAT_END
 95
       32
302
GRIDFORMAT
  1
GRIDFORMAT_BEGIN
 90
        0
 91
        1
 62
     0
 92
       -2
340
0
 93
        0
 40
1.125
309
GRIDFORMAT_END
309
TABLEFORMAT_END
  1
CELLSTYLE_BEGIN
 90
        1
 91
        1
300
_TITLE
309
CELLSTYLE_END
300
CELLSTYLE
  1
TABLEFORMAT_BEGIN
 90
        5
170
     1
 91
        0
 92
        0
 62
   257
 93
        1
300
CONTENTFORMAT
  1
CONTENTFORMAT_BEGIN
 90
        0
 91
        0
 92
      512
 93
        0
300

 40
0.0
140
1.0
 94
        5
 62
     0
340
9
144
4.5
309
CONTENTFORMAT_END
171
     1
301
MARGIN
  1
CELLMARGIN_BEGIN
 40
1.5
 40
1.5
 40
1.5
 40
1.5
 40
0.18
 40
0.18
309
CELLMARGIN_END
 94
        6
 95
        1
302
GRIDFORMAT
  1
GRIDFORMAT_BEGIN
 90
        0
 91
        1
 62
     0
 92
       -2
340
0
 93
        0
 40
1.125
309
GRIDFORMAT_END
 95
        2
302
GRIDFORMAT
  1
GRIDFORMAT_BEGIN
 90
        0
 91
        1
 62
     0
 92
       -2
340
0
 93
        0
 40
1.125
309
GRIDFORMAT_END
 95
        4
302
GRIDFORMAT
  1
GRIDFORMAT_BEGIN
 90
        0
 91
        1
 62
     0
 92
       -2
340
0
 93
        0
 40
1.125
309
GRIDFORMAT_END
 95
        8
302
GRIDFORMAT
  1
GRIDFORMAT_BEGIN
 90
        0
 91
        1
 62
     0
 92
       -2
340
0
 93
        0
 40
1.125
309
GRIDFORMAT_END
 95
       16
302
GRIDFORMAT
  1
GRIDFORMAT_BEGIN
 90
        0
 91
        1
 62
     0
 92
       -2
340
0
 93
        0
 40
1.125
309
GRIDFORMAT_END
 95
       32
302
GRIDFORMAT
  1
GRIDFORMAT_BEGIN
 90
        0
 91
        1
 62
     0
 92
       -2
340
0
 93
        0
 40
1.125
309
GRIDFORMAT_END
309
TABLEFORMAT_END
  1
CELLSTYLE_BEGIN
 90
        2
 91
        1
300
_HEADER
309
CELLSTYLE_END
300
CELLSTYLE
  1
TABLEFORMAT_BEGIN
 90
        5
170
     1
 91
        0
 92
        0
 62
   257
 93
        1
300
CONTENTFORMAT
  1
CONTENTFORMAT_BEGIN
 90
        0
 91
        0
 92
      512
 93
        0
300

 40
0.0
140
1.0
 94
        2
 62
     0
340
9
144
4.5
309
CONTENTFORMAT_END
171
     1
301
MARGIN
  1
CELLMARGIN_BEGIN
 40
1.5
 40
1.5
 40
1.5
 40
1.5
 40
0.18
 40
0.18
309
CELLMARGIN_END
 94
        6
 95
        1
302
GRIDFORMAT
  1
GRIDFORMAT_BEGIN
 90
        0
 91
        1
 62
     0
 92
       -2
340
0
 93
        0
 40
1.125
309
GRIDFORMAT_END
 95
        2
302
GRIDFORMAT
  1
GRIDFORMAT_BEGIN
 90
        0
 91
        1
 62
     0
 92
       -2
340
0
 93
        0
 40
1.125
309
GRIDFORMAT_END
 95
        4
302
GRIDFORMAT
  1
GRIDFORMAT_BEGIN
 90
        0
 91
        1
 62
     0
 92
       -2
340
0
 93
        0
 40
1.125
309
GRIDFORMAT_END
 95
        8
302
GRIDFORMAT
  1
GRIDFORMAT_BEGIN
 90
        0
 91
        1
 62
     0
 92
       -2
340
0
 93
        0
 40
1.125
309
GRIDFORMAT_END
 95
       16
302
GRIDFORMAT
  1
GRIDFORMAT_BEGIN
 90
        0
 91
        1
 62
     0
 92
       -2
340
0
 93
        0
 40
1.125
309
GRIDFORMAT_END
 95
       32
302
GRIDFORMAT
  1
GRIDFORMAT_BEGIN
 90
        0
 91
        1
 62
     0
 92
       -2
340
0
 93
        0
 40
1.125
309
GRIDFORMAT_END
309
TABLEFORMAT_END
  1
CELLSTYLE_BEGIN
 90
        3
 91
        2
300
_DATA
309
CELLSTYLE_END
  0
XRECORD
  5
4E54
102
{ACAD_REACTORS
330
316F
102
}
330
316F
100
AcDbXrecord
280
     1
102
ACAD_ROUNDTRIP_PRE2007_TABLESTYLE
 90
      512
 91
        0
  1

 92
      512
 93
        0
  2

 94
      512
 95
        0
  3

  0
XRECORD
  5
4E2F
102
{ACAD_REACTORS
330
4E2E
102
}
330
4E2E
100
AcDbXrecord
280
     1
102
RTVSPost2010Prop28
280
     1
102
RTVSPost2010PropOp28
 70
     1
102
RTVSPost2010Prop29
280
     1
102
RTVSPost2010PropOp29
 70
     1
102
RTVSPost2010Prop30
280
     0
102
RTVSPost2010PropOp30
 70
     1
102
RTVSPost2010Prop31
280
     0
102
RTVSPost2010PropOp31
 70
     1
102
RTVSPost2010Prop32
280
     0
102
RTVSPost2010PropOp32
 70
     1
102
RTVSPost2010Prop33
280
     0
102
RTVSPost2010PropOp33
 70
     1
102
RTVSPost2010Prop34
280
     0
102
RTVSPost2010PropOp34
 70
     1
102
RTVSPost2010Prop35
280
     0
102
RTVSPost2010PropOp35
 70
     1
102
RTVSPost2010Prop36
280
     0
102
RTVSPost2010PropOp36
 70
     1
102
RTVSPost2010Prop37
 90
       50
102
RTVSPost2010PropOp37
 70
     1
102
RTVSPost2010Prop38
140
0.0
102
RTVSPost2010PropOp38
 70
     1
102
RTVSPost2010Prop39
140
1.0
102
RTVSPost2010PropOp39
 70
     1
102
RTVSPost2010Prop40
 90
        0
102
RTVSPost2010PropOp40
 70
     1
102
RTVSPost2010Prop41ColorIndex
 90
       18
102
RTVSPost2010Prop41ColorRGB
 90
        0
102
RTVSPost2010PropOp41
 70
     1
102
RTVSPost2010Prop42
 90
       50
102
RTVSPost2010PropOp42
 70
     1
102
RTVSPost2010Prop43
 90
        3
102
RTVSPost2010PropOp43
 70
     1
102
RTVSPost2010Prop44ColorIndex
 90
        5
102
RTVSPost2010Prop44ColorRGB
 90
      255
102
RTVSPost2010PropOp44
 70
     1
102
RTVSPost2010Prop45
280
     0
102
RTVSPost2010PropOp45
 70
     1
102
RTVSPost2010Prop46
 90
       50
102
RTVSPost2010PropOp46
 70
     1
102
RTVSPost2010Prop47
 90
       50
102
RTVSPost2010PropOp47
 70
     1
102
RTVSPost2010Prop48
 90
       50
102
RTVSPost2010PropOp48
 70
     1
102
RTVSPost2010Prop49
280
     0
102
RTVSPost2010PropOp49
 70
     1
102
RTVSPost2010Prop50
 90
       50
102
RTVSPost2010PropOp50
 70
     1
102
RTVSPost2010Prop51ColorIndex
 90
      256
102
RTVSPost2010Prop51ColorRGB
 90
-16777216
102
RTVSPost2010PropOp51
 70
     0
102
RTVSPost2010Prop52
140
1.0
102
RTVSPost2010PropOp52
 70
     0
102
RTVSPost2010Prop53
 90
        2
102
RTVSPost2010PropOp53
 70
     1
102
RTVSPost2010Prop54
  1
strokes_ogs.tif
102
RTVSPost2010PropOp54
 70
     1
102
RTVSPost2010Prop55
280
     0
102
RTVSPost2010PropOp55
 70
     1
102
RTVSPost2010Prop56
140
1.0
102
RTVSPost2010PropOp56
 70
     1
102
RTVSPost2010Prop57
140
1.0
102
RTVSPost2010PropOp57
 70
     1
102
RTVSPropertyOp0
 70
     1
102
RTVSPropertyOp1
 70
     1
102
RTVSPropertyOp2
 70
     1
102
RTVSPropertyOp3
 70
     1
102
RTVSPropertyOp4
 70
     1
102
RTVSPropertyOp5
 70
     1
102
RTVSPropertyOp6
 70
     1
102
RTVSPropertyOp7
 70
     1
102
RTVSPropertyOp8
 70
     1
102
RTVSPropertyOp9
 70
     1
102
RTVSPropertyOp10
 70
     1
102
RTVSPropertyOp11
 70
     1
102
RTVSPropertyOp12
 70
     1
102
RTVSPropertyOp13
 70
     1
102
RTVSPropertyOp14
 70
     1
102
RTVSPropertyOp15
 70
     1
102
RTVSPropertyOp16
 70
     1
102
RTVSPropertyOp17
 70
     1
102
RTVSPropertyOp18
 70
     1
102
RTVSPropertyOp19
 70
     1
102
RTVSPropertyOp20
 70
     1
102
RTVSPropertyOp21
 70
     1
102
RTVSPropertyOp22
 70
     1
102
RTVSPropertyOp23
 70
     1
102
RTVSPropertyOp24
 70
     1
102
RTVSPropertyOp25
 70
     1
102
RTVSPropertyOp26
 70
     1
102
RTVSPropertyOp27
 70
     1
102
RTVSPropertyOp28
 70
     1
102
RTVSPropertyOp29
 70
     1
102
RTVSPropertyOp30
 70
     1
102
RTVSPropertyOp31
 70
     1
102
RTVSPropertyOp32
 70
     1
102
RTVSPropertyOp33
 70
     1
102
RTVSPropertyOp34
 70
     1
102
RTVSPropertyOp35
 70
     1
102
RTVSPropertyOp36
 70
     1
102
RTVSPropertyOp37
 70
     1
102
RTVSPropertyOp38
 70
     1
102
RTVSPropertyOp39
 70
     1
102
RTVSPropertyOp40
 70
     1
102
RTVSPropertyOp41
 70
     1
102
RTVSPropertyOp42
 70
     1
102
RTVSPropertyOp43
 70
     1
102
RTVSPropertyOp44
 70
     1
102
RTVSPropertyOp45
 70
     1
102
RTVSPropertyOp46
 70
     1
102
RTVSPropertyOp47
 70
     1
102
RTVSPropertyOp48
 70
     1
102
RTVSPropertyOp49
 70
     1
102
RTVSPropertyOp50
 70
     1
102
RTVSPropertyOp51
 70
     0
102
RTVSPropertyOp52
 70
     0
102
RTVSPropertyOp53
 70
     1
102
RTVSPropertyOp54
 70
     1
102
RTVSPropertyOp55
 70
     1
102
RTVSPropertyOp56
 70
     1
102
RTVSPropertyOp57
 70
     1
102
RTVSPropertyOp58
 70
     1
102
RTVSPropertyOp59
 70
     1
102
RTVSPropertyOp60
 70
     1
102
RTVSPropertyOp61
 70
     1
102
RTVSPropertyOp62
 70
     1
  0
XRECORD
  5
4E2D
102
{ACAD_REACTORS
330
4E2C
102
}
330
4E2C
100
AcDbXrecord
280
     1
102
RTVSPost2010Prop28
280
     0
102
RTVSPost2010PropOp28
 70
     1
102
RTVSPost2010Prop29
280
     1
102
RTVSPost2010PropOp29
 70
     1
102
RTVSPost2010Prop30
280
     1
102
RTVSPost2010PropOp30
 70
     1
102
RTVSPost2010Prop31
280
     0
102
RTVSPost2010PropOp31
 70
     1
102
RTVSPost2010Prop32
280
     0
102
RTVSPost2010PropOp32
 70
     1
102
RTVSPost2010Prop33
280
     0
102
RTVSPost2010PropOp33
 70
     1
102
RTVSPost2010Prop34
280
     0
102
RTVSPost2010PropOp34
 70
     1
102
RTVSPost2010Prop35
280
     0
102
RTVSPost2010PropOp35
 70
     1
102
RTVSPost2010Prop36
280
     0
102
RTVSPost2010PropOp36
 70
     1
102
RTVSPost2010Prop37
 90
       50
102
RTVSPost2010PropOp37
 70
     1
102
RTVSPost2010Prop38
140
0.0
102
RTVSPost2010PropOp38
 70
     1
102
RTVSPost2010Prop39
140
1.0
102
RTVSPost2010PropOp39
 70
     1
102
RTVSPost2010Prop40
 90
        0
102
RTVSPost2010PropOp40
 70
     1
102
RTVSPost2010Prop41ColorIndex
 90
       18
102
RTVSPost2010Prop41ColorRGB
 90
        0
102
RTVSPost2010PropOp41
 70
     1
102
RTVSPost2010Prop42
 90
       50
102
RTVSPost2010PropOp42
 70
     1
102
RTVSPost2010Prop43
 90
        3
102
RTVSPost2010PropOp43
 70
     1
102
RTVSPost2010Prop44ColorIndex
 90
        5
102
RTVSPost2010Prop44ColorRGB
 90
      255
102
RTVSPost2010PropOp44
 70
     1
102
RTVSPost2010Prop45
280
     0
102
RTVSPost2010PropOp45
 70
     1
102
RTVSPost2010Prop46
 90
       50
102
RTVSPost2010PropOp46
 70
     1
102
RTVSPost2010Prop47
 90
       50
102
RTVSPost2010PropOp47
 70
     1
102
RTVSPost2010Prop48
 90
       50
102
RTVSPost2010PropOp48
 70
     1
102
RTVSPost2010Prop49
280
     0
102
RTVSPost2010PropOp49
 70
     1
102
RTVSPost2010Prop50
 90
       50
102
RTVSPost2010PropOp50
 70
     1
102
RTVSPost2010Prop51ColorIndex
 90
      256
102
RTVSPost2010Prop51ColorRGB
 90
-16777216
102
RTVSPost2010PropOp51
 70
     0
102
RTVSPost2010Prop52
140
1.0
102
RTVSPost2010PropOp52
 70
     0
102
RTVSPost2010Prop53
 90
        2
102
RTVSPost2010PropOp53
 70
     1
102
RTVSPost2010Prop54
  1
strokes_ogs.tif
102
RTVSPost2010PropOp54
 70
     1
102
RTVSPost2010Prop55
280
     0
102
RTVSPost2010PropOp55
 70
     1
102
RTVSPost2010Prop56
140
1.0
102
RTVSPost2010PropOp56
 70
     1
102
RTVSPost2010Prop57
140
1.0
102
RTVSPost2010PropOp57
 70
     1
102
RTVSPropertyOp0
 70
     1
102
RTVSPropertyOp1
 70
     1
102
RTVSPropertyOp2
 70
     1
102
RTVSPropertyOp3
 70
     1
102
RTVSPropertyOp4
 70
     1
102
RTVSPropertyOp5
 70
     1
102
RTVSPropertyOp6
 70
     1
102
RTVSPropertyOp7
 70
     1
102
RTVSPropertyOp8
 70
     1
102
RTVSPropertyOp9
 70
     1
102
RTVSPropertyOp10
 70
     1
102
RTVSPropertyOp11
 70
     1
102
RTVSPropertyOp12
 70
     1
102
RTVSPropertyOp13
 70
     1
102
RTVSPropertyOp14
 70
     1
102
RTVSPropertyOp15
 70
     1
102
RTVSPropertyOp16
 70
     1
102
RTVSPropertyOp17
 70
     1
102
RTVSPropertyOp18
 70
     1
102
RTVSPropertyOp19
 70
     1
102
RTVSPropertyOp20
 70
     1
102
RTVSPropertyOp21
 70
     1
102
RTVSPropertyOp22
 70
     1
102
RTVSPropertyOp23
 70
     1
102
RTVSPropertyOp24
 70
     1
102
RTVSPropertyOp25
 70
     1
102
RTVSPropertyOp26
 70
     1
102
RTVSPropertyOp27
 70
     1
102
RTVSPropertyOp28
 70
     1
102
RTVSPropertyOp29
 70
     1
102
RTVSPropertyOp30
 70
     1
102
RTVSPropertyOp31
 70
     1
102
RTVSPropertyOp32
 70
     1
102
RTVSPropertyOp33
 70
     1
102
RTVSPropertyOp34
 70
     1
102
RTVSPropertyOp35
 70
     1
102
RTVSPropertyOp36
 70
     1
102
RTVSPropertyOp37
 70
     1
102
RTVSPropertyOp38
 70
     1
102
RTVSPropertyOp39
 70
     1
102
RTVSPropertyOp40
 70
     1
102
RTVSPropertyOp41
 70
     1
102
RTVSPropertyOp42
 70
     1
102
RTVSPropertyOp43
 70
     1
102
RTVSPropertyOp44
 70
     1
102
RTVSPropertyOp45
 70
     1
102
RTVSPropertyOp46
 70
     1
102
RTVSPropertyOp47
 70
     1
102
RTVSPropertyOp48
 70
     1
102
RTVSPropertyOp49
 70
     1
102
RTVSPropertyOp50
 70
     1
102
RTVSPropertyOp51
 70
     0
102
RTVSPropertyOp52
 70
     0
102
RTVSPropertyOp53
 70
     1
102
RTVSPropertyOp54
 70
     1
102
RTVSPropertyOp55
 70
     1
102
RTVSPropertyOp56
 70
     1
102
RTVSPropertyOp57
 70
     1
102
RTVSPropertyOp58
 70
     1
102
RTVSPropertyOp59
 70
     1
102
RTVSPropertyOp60
 70
     1
102
RTVSPropertyOp61
 70
     1
102
RTVSPropertyOp62
 70
     1
  0
XRECORD
  5
4E3B
102
{ACAD_REACTORS
330
4E3A
102
}
330
4E3A
100
AcDbXrecord
280
     1
102
RTVSPost2010Prop28
280
     0
102
RTVSPost2010PropOp28
 70
     1
102
RTVSPost2010Prop29
280
     1
102
RTVSPost2010PropOp29
 70
     1
102
RTVSPost2010Prop30
280
     1
102
RTVSPost2010PropOp30
 70
     1
102
RTVSPost2010Prop31
280
     0
102
RTVSPost2010PropOp31
 70
     1
102
RTVSPost2010Prop32
280
     0
102
RTVSPost2010PropOp32
 70
     1
102
RTVSPost2010Prop33
280
     0
102
RTVSPost2010PropOp33
 70
     1
102
RTVSPost2010Prop34
280
     0
102
RTVSPost2010PropOp34
 70
     1
102
RTVSPost2010Prop35
280
     0
102
RTVSPost2010PropOp35
 70
     1
102
RTVSPost2010Prop36
280
     0
102
RTVSPost2010PropOp36
 70
     1
102
RTVSPost2010Prop37
 90
       50
102
RTVSPost2010PropOp37
 70
     1
102
RTVSPost2010Prop38
140
0.0
102
RTVSPost2010PropOp38
 70
     1
102
RTVSPost2010Prop39
140
1.0
102
RTVSPost2010PropOp39
 70
     1
102
RTVSPost2010Prop40
 90
        0
102
RTVSPost2010PropOp40
 70
     1
102
RTVSPost2010Prop41ColorIndex
 90
       18
102
RTVSPost2010Prop41ColorRGB
 90
        0
102
RTVSPost2010PropOp41
 70
     1
102
RTVSPost2010Prop42
 90
       50
102
RTVSPost2010PropOp42
 70
     1
102
RTVSPost2010Prop43
 90
        3
102
RTVSPost2010PropOp43
 70
     1
102
RTVSPost2010Prop44ColorIndex
 90
        5
102
RTVSPost2010Prop44ColorRGB
 90
      255
102
RTVSPost2010PropOp44
 70
     1
102
RTVSPost2010Prop45
280
     0
102
RTVSPost2010PropOp45
 70
     1
102
RTVSPost2010Prop46
 90
       50
102
RTVSPost2010PropOp46
 70
     1
102
RTVSPost2010Prop47
 90
       50
102
RTVSPost2010PropOp47
 70
     1
102
RTVSPost2010Prop48
 90
       50
102
RTVSPost2010PropOp48
 70
     1
102
RTVSPost2010Prop49
280
     0
102
RTVSPost2010PropOp49
 70
     1
102
RTVSPost2010Prop50
 90
       50
102
RTVSPost2010PropOp50
 70
     1
102
RTVSPost2010Prop51ColorIndex
 90
      256
102
RTVSPost2010Prop51ColorRGB
 90
-16777216
102
RTVSPost2010PropOp51
 70
     0
102
RTVSPost2010Prop52
140
1.0
102
RTVSPost2010PropOp52
 70
     0
102
RTVSPost2010Prop53
 90
        2
102
RTVSPost2010PropOp53
 70
     1
102
RTVSPost2010Prop54
  1
strokes_ogs.tif
102
RTVSPost2010PropOp54
 70
     1
102
RTVSPost2010Prop55
280
     0
102
RTVSPost2010PropOp55
 70
     1
102
RTVSPost2010Prop56
140
1.0
102
RTVSPost2010PropOp56
 70
     1
102
RTVSPost2010Prop57
140
1.0
102
RTVSPost2010PropOp57
 70
     1
102
RTVSPropertyOp0
 70
     1
102
RTVSPropertyOp1
 70
     1
102
RTVSPropertyOp2
 70
     1
102
RTVSPropertyOp3
 70
     1
102
RTVSPropertyOp4
 70
     1
102
RTVSPropertyOp5
 70
     1
102
RTVSPropertyOp6
 70
     1
102
RTVSPropertyOp7
 70
     1
102
RTVSPropertyOp8
 70
     1
102
RTVSPropertyOp9
 70
     1
102
RTVSPropertyOp10
 70
     1
102
RTVSPropertyOp11
 70
     1
102
RTVSPropertyOp12
 70
     1
102
RTVSPropertyOp13
 70
     1
102
RTVSPropertyOp14
 70
     1
102
RTVSPropertyOp15
 70
     1
102
RTVSPropertyOp16
 70
     1
102
RTVSPropertyOp17
 70
     1
102
RTVSPropertyOp18
 70
     1
102
RTVSPropertyOp19
 70
     1
102
RTVSPropertyOp20
 70
     1
102
RTVSPropertyOp21
 70
     1
102
RTVSPropertyOp22
 70
     1
102
RTVSPropertyOp23
 70
     1
102
RTVSPropertyOp24
 70
     1
102
RTVSPropertyOp25
 70
     1
102
RTVSPropertyOp26
 70
     1
102
RTVSPropertyOp27
 70
     1
102
RTVSPropertyOp28
 70
     1
102
RTVSPropertyOp29
 70
     1
102
RTVSPropertyOp30
 70
     1
102
RTVSPropertyOp31
 70
     1
102
RTVSPropertyOp32
 70
     1
102
RTVSPropertyOp33
 70
     1
102
RTVSPropertyOp34
 70
     1
102
RTVSPropertyOp35
 70
     1
102
RTVSPropertyOp36
 70
     1
102
RTVSPropertyOp37
 70
     1
102
RTVSPropertyOp38
 70
     1
102
RTVSPropertyOp39
 70
     1
102
RTVSPropertyOp40
 70
     1
102
RTVSPropertyOp41
 70
     1
102
RTVSPropertyOp42
 70
     1
102
RTVSPropertyOp43
 70
     1
102
RTVSPropertyOp44
 70
     1
102
RTVSPropertyOp45
 70
     1
102
RTVSPropertyOp46
 70
     1
102
RTVSPropertyOp47
 70
     1
102
RTVSPropertyOp48
 70
     1
102
RTVSPropertyOp49
 70
     1
102
RTVSPropertyOp50
 70
     1
102
RTVSPropertyOp51
 70
     0
102
RTVSPropertyOp52
 70
     0
102
RTVSPropertyOp53
 70
     1
102
RTVSPropertyOp54
 70
     1
102
RTVSPropertyOp55
 70
     1
102
RTVSPropertyOp56
 70
     1
102
RTVSPropertyOp57
 70
     1
102
RTVSPropertyOp58
 70
     1
102
RTVSPropertyOp59
 70
     1
102
RTVSPropertyOp60
 70
     1
102
RTVSPropertyOp61
 70
     1
102
RTVSPropertyOp62
 70
     1
  0
XRECORD
  5
4E43
102
{ACAD_REACTORS
330
4E42
102
}
330
4E42
100
AcDbXrecord
280
     1
102
RTVSPost2010Prop28
280
     0
102
RTVSPost2010PropOp28
 70
     1
102
RTVSPost2010Prop29
280
     1
102
RTVSPost2010PropOp29
 70
     1
102
RTVSPost2010Prop30
280
     1
102
RTVSPost2010PropOp30
 70
     1
102
RTVSPost2010Prop31
280
     0
102
RTVSPost2010PropOp31
 70
     1
102
RTVSPost2010Prop32
280
     0
102
RTVSPost2010PropOp32
 70
     1
102
RTVSPost2010Prop33
280
     0
102
RTVSPost2010PropOp33
 70
     1
102
RTVSPost2010Prop34
280
     0
102
RTVSPost2010PropOp34
 70
     1
102
RTVSPost2010Prop35
280
     0
102
RTVSPost2010PropOp35
 70
     1
102
RTVSPost2010Prop36
280
     0
102
RTVSPost2010PropOp36
 70
     1
102
RTVSPost2010Prop37
 90
       50
102
RTVSPost2010PropOp37
 70
     1
102
RTVSPost2010Prop38
140
0.0
102
RTVSPost2010PropOp38
 70
     1
102
RTVSPost2010Prop39
140
1.0
102
RTVSPost2010PropOp39
 70
     1
102
RTVSPost2010Prop40
 90
        0
102
RTVSPost2010PropOp40
 70
     1
102
RTVSPost2010Prop41ColorIndex
 90
       18
102
RTVSPost2010Prop41ColorRGB
 90
        0
102
RTVSPost2010PropOp41
 70
     1
102
RTVSPost2010Prop42
 90
       50
102
RTVSPost2010PropOp42
 70
     1
102
RTVSPost2010Prop43
 90
        3
102
RTVSPost2010PropOp43
 70
     1
102
RTVSPost2010Prop44ColorIndex
 90
        5
102
RTVSPost2010Prop44ColorRGB
 90
      255
102
RTVSPost2010PropOp44
 70
     1
102
RTVSPost2010Prop45
280
     0
102
RTVSPost2010PropOp45
 70
     1
102
RTVSPost2010Prop46
 90
       50
102
RTVSPost2010PropOp46
 70
     1
102
RTVSPost2010Prop47
 90
       50
102
RTVSPost2010PropOp47
 70
     1
102
RTVSPost2010Prop48
 90
       50
102
RTVSPost2010PropOp48
 70
     1
102
RTVSPost2010Prop49
280
     0
102
RTVSPost2010PropOp49
 70
     1
102
RTVSPost2010Prop50
 90
       50
102
RTVSPost2010PropOp50
 70
     1
102
RTVSPost2010Prop51ColorIndex
 90
      256
102
RTVSPost2010Prop51ColorRGB
 90
-16777216
102
RTVSPost2010PropOp51
 70
     0
102
RTVSPost2010Prop52
140
1.0
102
RTVSPost2010PropOp52
 70
     0
102
RTVSPost2010Prop53
 90
        2
102
RTVSPost2010PropOp53
 70
     1
102
RTVSPost2010Prop54
  1
strokes_ogs.tif
102
RTVSPost2010PropOp54
 70
     1
102
RTVSPost2010Prop55
280
     0
102
RTVSPost2010PropOp55
 70
     1
102
RTVSPost2010Prop56
140
1.0
102
RTVSPost2010PropOp56
 70
     1
102
RTVSPost2010Prop57
140
1.0
102
RTVSPost2010PropOp57
 70
     1
102
RTVSPropertyOp0
 70
     1
102
RTVSPropertyOp1
 70
     1
102
RTVSPropertyOp2
 70
     1
102
RTVSPropertyOp3
 70
     1
102
RTVSPropertyOp4
 70
     1
102
RTVSPropertyOp5
 70
     1
102
RTVSPropertyOp6
 70
     1
102
RTVSPropertyOp7
 70
     1
102
RTVSPropertyOp8
 70
     1
102
RTVSPropertyOp9
 70
     1
102
RTVSPropertyOp10
 70
     1
102
RTVSPropertyOp11
 70
     1
102
RTVSPropertyOp12
 70
     1
102
RTVSPropertyOp13
 70
     1
102
RTVSPropertyOp14
 70
     1
102
RTVSPropertyOp15
 70
     1
102
RTVSPropertyOp16
 70
     1
102
RTVSPropertyOp17
 70
     1
102
RTVSPropertyOp18
 70
     1
102
RTVSPropertyOp19
 70
     1
102
RTVSPropertyOp20
 70
     1
102
RTVSPropertyOp21
 70
     1
102
RTVSPropertyOp22
 70
     1
102
RTVSPropertyOp23
 70
     1
102
RTVSPropertyOp24
 70
     1
102
RTVSPropertyOp25
 70
     1
102
RTVSPropertyOp26
 70
     1
102
RTVSPropertyOp27
 70
     1
102
RTVSPropertyOp28
 70
     1
102
RTVSPropertyOp29
 70
     1
102
RTVSPropertyOp30
 70
     1
102
RTVSPropertyOp31
 70
     1
102
RTVSPropertyOp32
 70
     1
102
RTVSPropertyOp33
 70
     1
102
RTVSPropertyOp34
 70
     1
102
RTVSPropertyOp35
 70
     1
102
RTVSPropertyOp36
 70
     1
102
RTVSPropertyOp37
 70
     1
102
RTVSPropertyOp38
 70
     1
102
RTVSPropertyOp39
 70
     1
102
RTVSPropertyOp40
 70
     1
102
RTVSPropertyOp41
 70
     1
102
RTVSPropertyOp42
 70
     1
102
RTVSPropertyOp43
 70
     1
102
RTVSPropertyOp44
 70
     1
102
RTVSPropertyOp45
 70
     1
102
RTVSPropertyOp46
 70
     1
102
RTVSPropertyOp47
 70
     1
102
RTVSPropertyOp48
 70
     1
102
RTVSPropertyOp49
 70
     1
102
RTVSPropertyOp50
 70
     1
102
RTVSPropertyOp51
 70
     0
102
RTVSPropertyOp52
 70
     0
102
RTVSPropertyOp53
 70
     1
102
RTVSPropertyOp54
 70
     1
102
RTVSPropertyOp55
 70
     1
102
RTVSPropertyOp56
 70
     1
102
RTVSPropertyOp57
 70
     1
102
RTVSPropertyOp58
 70
     1
102
RTVSPropertyOp59
 70
     1
102
RTVSPropertyOp60
 70
     1
102
RTVSPropertyOp61
 70
     1
102
RTVSPropertyOp62
 70
     1
  0
XRECORD
  5
4E35
102
{ACAD_REACTORS
330
4E34
102
}
330
4E34
100
AcDbXrecord
280
     1
102
RTVSPost2010Prop28
280
     0
102
RTVSPost2010PropOp28
 70
     1
102
RTVSPost2010Prop29
280
     1
102
RTVSPost2010PropOp29
 70
     1
102
RTVSPost2010Prop30
280
     1
102
RTVSPost2010PropOp30
 70
     1
102
RTVSPost2010Prop31
280
     0
102
RTVSPost2010PropOp31
 70
     1
102
RTVSPost2010Prop32
280
     0
102
RTVSPost2010PropOp32
 70
     1
102
RTVSPost2010Prop33
280
     0
102
RTVSPost2010PropOp33
 70
     1
102
RTVSPost2010Prop34
280
     0
102
RTVSPost2010PropOp34
 70
     1
102
RTVSPost2010Prop35
280
     0
102
RTVSPost2010PropOp35
 70
     1
102
RTVSPost2010Prop36
280
     0
102
RTVSPost2010PropOp36
 70
     1
102
RTVSPost2010Prop37
 90
       50
102
RTVSPost2010PropOp37
 70
     1
102
RTVSPost2010Prop38
140
0.0
102
RTVSPost2010PropOp38
 70
     1
102
RTVSPost2010Prop39
140
1.0
102
RTVSPost2010PropOp39
 70
     1
102
RTVSPost2010Prop40
 90
        0
102
RTVSPost2010PropOp40
 70
     1
102
RTVSPost2010Prop41ColorIndex
 90
       18
102
RTVSPost2010Prop41ColorRGB
 90
        0
102
RTVSPost2010PropOp41
 70
     1
102
RTVSPost2010Prop42
 90
       50
102
RTVSPost2010PropOp42
 70
     1
102
RTVSPost2010Prop43
 90
        3
102
RTVSPost2010PropOp43
 70
     1
102
RTVSPost2010Prop44ColorIndex
 90
        5
102
RTVSPost2010Prop44ColorRGB
 90
      255
102
RTVSPost2010PropOp44
 70
     1
102
RTVSPost2010Prop45
280
     0
102
RTVSPost2010PropOp45
 70
     1
102
RTVSPost2010Prop46
 90
       50
102
RTVSPost2010PropOp46
 70
     1
102
RTVSPost2010Prop47
 90
       50
102
RTVSPost2010PropOp47
 70
     1
102
RTVSPost2010Prop48
 90
       50
102
RTVSPost2010PropOp48
 70
     1
102
RTVSPost2010Prop49
280
     0
102
RTVSPost2010PropOp49
 70
     1
102
RTVSPost2010Prop50
 90
       50
102
RTVSPost2010PropOp50
 70
     1
102
RTVSPost2010Prop51ColorIndex
 90
      256
102
RTVSPost2010Prop51ColorRGB
 90
-16777216
102
RTVSPost2010PropOp51
 70
     0
102
RTVSPost2010Prop52
140
1.0
102
RTVSPost2010PropOp52
 70
     0
102
RTVSPost2010Prop53
 90
        2
102
RTVSPost2010PropOp53
 70
     1
102
RTVSPost2010Prop54
  1
strokes_ogs.tif
102
RTVSPost2010PropOp54
 70
     1
102
RTVSPost2010Prop55
280
     0
102
RTVSPost2010PropOp55
 70
     1
102
RTVSPost2010Prop56
140
1.0
102
RTVSPost2010PropOp56
 70
     1
102
RTVSPost2010Prop57
140
1.0
102
RTVSPost2010PropOp57
 70
     1
102
RTVSPropertyOp0
 70
     1
102
RTVSPropertyOp1
 70
     1
102
RTVSPropertyOp2
 70
     1
102
RTVSPropertyOp3
 70
     1
102
RTVSPropertyOp4
 70
     1
102
RTVSPropertyOp5
 70
     1
102
RTVSPropertyOp6
 70
     1
102
RTVSPropertyOp7
 70
     1
102
RTVSPropertyOp8
 70
     1
102
RTVSPropertyOp9
 70
     1
102
RTVSPropertyOp10
 70
     1
102
RTVSPropertyOp11
 70
     1
102
RTVSPropertyOp12
 70
     1
102
RTVSPropertyOp13
 70
     1
102
RTVSPropertyOp14
 70
     1
102
RTVSPropertyOp15
 70
     1
102
RTVSPropertyOp16
 70
     1
102
RTVSPropertyOp17
 70
     1
102
RTVSPropertyOp18
 70
     1
102
RTVSPropertyOp19
 70
     1
102
RTVSPropertyOp20
 70
     1
102
RTVSPropertyOp21
 70
     1
102
RTVSPropertyOp22
 70
     1
102
RTVSPropertyOp23
 70
     1
102
RTVSPropertyOp24
 70
     1
102
RTVSPropertyOp25
 70
     1
102
RTVSPropertyOp26
 70
     1
102
RTVSPropertyOp27
 70
     1
102
RTVSPropertyOp28
 70
     1
102
RTVSPropertyOp29
 70
     1
102
RTVSPropertyOp30
 70
     1
102
RTVSPropertyOp31
 70
     1
102
RTVSPropertyOp32
 70
     1
102
RTVSPropertyOp33
 70
     1
102
RTVSPropertyOp34
 70
     1
102
RTVSPropertyOp35
 70
     1
102
RTVSPropertyOp36
 70
     1
102
RTVSPropertyOp37
 70
     1
102
RTVSPropertyOp38
 70
     1
102
RTVSPropertyOp39
 70
     1
102
RTVSPropertyOp40
 70
     1
102
RTVSPropertyOp41
 70
     1
102
RTVSPropertyOp42
 70
     1
102
RTVSPropertyOp43
 70
     1
102
RTVSPropertyOp44
 70
     1
102
RTVSPropertyOp45
 70
     1
102
RTVSPropertyOp46
 70
     1
102
RTVSPropertyOp47
 70
     1
102
RTVSPropertyOp48
 70
     1
102
RTVSPropertyOp49
 70
     1
102
RTVSPropertyOp50
 70
     1
102
RTVSPropertyOp51
 70
     0
102
RTVSPropertyOp52
 70
     0
102
RTVSPropertyOp53
 70
     1
102
RTVSPropertyOp54
 70
     1
102
RTVSPropertyOp55
 70
     1
102
RTVSPropertyOp56
 70
     1
102
RTVSPropertyOp57
 70
     1
102
RTVSPropertyOp58
 70
     1
102
RTVSPropertyOp59
 70
     1
102
RTVSPropertyOp60
 70
     1
102
RTVSPropertyOp61
 70
     1
102
RTVSPropertyOp62
 70
     1
  0
XRECORD
  5
4E39
102
{ACAD_REACTORS
330
4E38
102
}
330
4E38
100
AcDbXrecord
280
     1
102
RTVSPost2010Prop28
280
     0
102
RTVSPost2010PropOp28
 70
     1
102
RTVSPost2010Prop29
280
     1
102
RTVSPost2010PropOp29
 70
     1
102
RTVSPost2010Prop30
280
     1
102
RTVSPost2010PropOp30
 70
     1
102
RTVSPost2010Prop31
280
     0
102
RTVSPost2010PropOp31
 70
     1
102
RTVSPost2010Prop32
280
     0
102
RTVSPost2010PropOp32
 70
     1
102
RTVSPost2010Prop33
280
     0
102
RTVSPost2010PropOp33
 70
     1
102
RTVSPost2010Prop34
280
     0
102
RTVSPost2010PropOp34
 70
     1
102
RTVSPost2010Prop35
280
     0
102
RTVSPost2010PropOp35
 70
     1
102
RTVSPost2010Prop36
280
     0
102
RTVSPost2010PropOp36
 70
     1
102
RTVSPost2010Prop37
 90
       50
102
RTVSPost2010PropOp37
 70
     1
102
RTVSPost2010Prop38
140
0.0
102
RTVSPost2010PropOp38
 70
     1
102
RTVSPost2010Prop39
140
1.0
102
RTVSPost2010PropOp39
 70
     1
102
RTVSPost2010Prop40
 90
        0
102
RTVSPost2010PropOp40
 70
     1
102
RTVSPost2010Prop41ColorIndex
 90
       18
102
RTVSPost2010Prop41ColorRGB
 90
        0
102
RTVSPost2010PropOp41
 70
     1
102
RTVSPost2010Prop42
 90
       50
102
RTVSPost2010PropOp42
 70
     1
102
RTVSPost2010Prop43
 90
        3
102
RTVSPost2010PropOp43
 70
     1
102
RTVSPost2010Prop44ColorIndex
 90
        5
102
RTVSPost2010Prop44ColorRGB
 90
      255
102
RTVSPost2010PropOp44
 70
     1
102
RTVSPost2010Prop45
280
     0
102
RTVSPost2010PropOp45
 70
     1
102
RTVSPost2010Prop46
 90
       50
102
RTVSPost2010PropOp46
 70
     1
102
RTVSPost2010Prop47
 90
       50
102
RTVSPost2010PropOp47
 70
     1
102
RTVSPost2010Prop48
 90
       50
102
RTVSPost2010PropOp48
 70
     1
102
RTVSPost2010Prop49
280
     0
102
RTVSPost2010PropOp49
 70
     1
102
RTVSPost2010Prop50
 90
       50
102
RTVSPost2010PropOp50
 70
     1
102
RTVSPost2010Prop51ColorIndex
 90
      256
102
RTVSPost2010Prop51ColorRGB
 90
-16777216
102
RTVSPost2010PropOp51
 70
     0
102
RTVSPost2010Prop52
140
1.0
102
RTVSPost2010PropOp52
 70
     0
102
RTVSPost2010Prop53
 90
        2
102
RTVSPost2010PropOp53
 70
     1
102
RTVSPost2010Prop54
  1
strokes_ogs.tif
102
RTVSPost2010PropOp54
 70
     1
102
RTVSPost2010Prop55
280
     0
102
RTVSPost2010PropOp55
 70
     1
102
RTVSPost2010Prop56
140
1.0
102
RTVSPost2010PropOp56
 70
     1
102
RTVSPost2010Prop57
140
1.0
102
RTVSPost2010PropOp57
 70
     1
102
RTVSPropertyOp0
 70
     1
102
RTVSPropertyOp1
 70
     1
102
RTVSPropertyOp2
 70
     1
102
RTVSPropertyOp3
 70
     1
102
RTVSPropertyOp4
 70
     1
102
RTVSPropertyOp5
 70
     1
102
RTVSPropertyOp6
 70
     1
102
RTVSPropertyOp7
 70
     1
102
RTVSPropertyOp8
 70
     1
102
RTVSPropertyOp9
 70
     1
102
RTVSPropertyOp10
 70
     1
102
RTVSPropertyOp11
 70
     1
102
RTVSPropertyOp12
 70
     1
102
RTVSPropertyOp13
 70
     1
102
RTVSPropertyOp14
 70
     1
102
RTVSPropertyOp15
 70
     1
102
RTVSPropertyOp16
 70
     1
102
RTVSPropertyOp17
 70
     1
102
RTVSPropertyOp18
 70
     1
102
RTVSPropertyOp19
 70
     1
102
RTVSPropertyOp20
 70
     1
102
RTVSPropertyOp21
 70
     1
102
RTVSPropertyOp22
 70
     1
102
RTVSPropertyOp23
 70
     1
102
RTVSPropertyOp24
 70
     1
102
RTVSPropertyOp25
 70
     1
102
RTVSPropertyOp26
 70
     1
102
RTVSPropertyOp27
 70
     1
102
RTVSPropertyOp28
 70
     1
102
RTVSPropertyOp29
 70
     1
102
RTVSPropertyOp30
 70
     1
102
RTVSPropertyOp31
 70
     1
102
RTVSPropertyOp32
 70
     1
102
RTVSPropertyOp33
 70
     1
102
RTVSPropertyOp34
 70
     1
102
RTVSPropertyOp35
 70
     1
102
RTVSPropertyOp36
 70
     1
102
RTVSPropertyOp37
 70
     1
102
RTVSPropertyOp38
 70
     1
102
RTVSPropertyOp39
 70
     1
102
RTVSPropertyOp40
 70
     1
102
RTVSPropertyOp41
 70
     1
102
RTVSPropertyOp42
 70
     1
102
RTVSPropertyOp43
 70
     1
102
RTVSPropertyOp44
 70
     1
102
RTVSPropertyOp45
 70
     1
102
RTVSPropertyOp46
 70
     1
102
RTVSPropertyOp47
 70
     1
102
RTVSPropertyOp48
 70
     1
102
RTVSPropertyOp49
 70
     1
102
RTVSPropertyOp50
 70
     1
102
RTVSPropertyOp51
 70
     0
102
RTVSPropertyOp52
 70
     0
102
RTVSPropertyOp53
 70
     1
102
RTVSPropertyOp54
 70
     1
102
RTVSPropertyOp55
 70
     1
102
RTVSPropertyOp56
 70
     1
102
RTVSPropertyOp57
 70
     1
102
RTVSPropertyOp58
 70
     1
102
RTVSPropertyOp59
 70
     1
102
RTVSPropertyOp60
 70
     1
102
RTVSPropertyOp61
 70
     1
102
RTVSPropertyOp62
 70
     1
  0
XRECORD
  5
4E53
102
{ACAD_REACTORS
330
4E52
102
}
330
4E52
100
AcDbXrecord
280
     1
102
RTVSPost2010Prop28
280
     0
102
RTVSPost2010PropOp28
 70
     0
102
RTVSPost2010Prop29
280
     1
102
RTVSPost2010PropOp29
 70
     0
102
RTVSPost2010Prop30
280
     1
102
RTVSPost2010PropOp30
 70
     0
102
RTVSPost2010Prop31
280
     0
102
RTVSPost2010PropOp31
 70
     0
102
RTVSPost2010Prop32
280
     0
102
RTVSPost2010PropOp32
 70
     0
102
RTVSPost2010Prop33
280
     0
102
RTVSPost2010PropOp33
 70
     0
102
RTVSPost2010Prop34
280
     0
102
RTVSPost2010PropOp34
 70
     0
102
RTVSPost2010Prop35
280
     0
102
RTVSPost2010PropOp35
 70
     0
102
RTVSPost2010Prop36
280
     0
102
RTVSPost2010PropOp36
 70
     0
102
RTVSPost2010Prop37
 90
       50
102
RTVSPost2010PropOp37
 70
     0
102
RTVSPost2010Prop38
140
0.0
102
RTVSPost2010PropOp38
 70
     0
102
RTVSPost2010Prop39
140
1.0
102
RTVSPost2010PropOp39
 70
     0
102
RTVSPost2010Prop40
 90
        0
102
RTVSPost2010PropOp40
 70
     0
102
RTVSPost2010Prop41ColorIndex
 90
       18
102
RTVSPost2010Prop41ColorRGB
 90
        0
102
RTVSPost2010PropOp41
 70
     0
102
RTVSPost2010Prop42
 90
       50
102
RTVSPost2010PropOp42
 70
     0
102
RTVSPost2010Prop43
 90
        3
102
RTVSPost2010PropOp43
 70
     0
102
RTVSPost2010Prop44ColorIndex
 90
        5
102
RTVSPost2010Prop44ColorRGB
 90
      255
102
RTVSPost2010PropOp44
 70
     0
102
RTVSPost2010Prop45
280
     0
102
RTVSPost2010PropOp45
 70
     0
102
RTVSPost2010Prop46
 90
       50
102
RTVSPost2010PropOp46
 70
     0
102
RTVSPost2010Prop47
 90
       50
102
RTVSPost2010PropOp47
 70
     0
102
RTVSPost2010Prop48
 90
       50
102
RTVSPost2010PropOp48
 70
     0
102
RTVSPost2010Prop49
280
     0
102
RTVSPost2010PropOp49
 70
     0
102
RTVSPost2010Prop50
 90
       50
102
RTVSPost2010PropOp50
 70
     0
102
RTVSPost2010Prop51ColorIndex
 90
      256
102
RTVSPost2010Prop51ColorRGB
 90
-16777216
102
RTVSPost2010PropOp51
 70
     0
102
RTVSPost2010Prop52
140
1.0
102
RTVSPost2010PropOp52
 70
     0
102
RTVSPost2010Prop53
 90
        2
102
RTVSPost2010PropOp53
 70
     0
102
RTVSPost2010Prop54
  1
strokes_ogs.tif
102
RTVSPost2010PropOp54
 70
     0
102
RTVSPost2010Prop55
280
     0
102
RTVSPost2010PropOp55
 70
     0
102
RTVSPost2010Prop56
140
1.0
102
RTVSPost2010PropOp56
 70
     0
102
RTVSPost2010Prop57
140
1.0
102
RTVSPost2010PropOp57
 70
     0
102
RTVSPropertyOp0
 70
     0
102
RTVSPropertyOp1
 70
     0
102
RTVSPropertyOp2
 70
     0
102
RTVSPropertyOp3
 70
     0
102
RTVSPropertyOp4
 70
     0
102
RTVSPropertyOp5
 70
     0
102
RTVSPropertyOp6
 70
     0
102
RTVSPropertyOp7
 70
     0
102
RTVSPropertyOp8
 70
     0
102
RTVSPropertyOp9
 70
     0
102
RTVSPropertyOp10
 70
     0
102
RTVSPropertyOp11
 70
     0
102
RTVSPropertyOp12
 70
     0
102
RTVSPropertyOp13
 70
     0
102
RTVSPropertyOp14
 70
     2
102
RTVSPropertyOp15
 70
     0
102
RTVSPropertyOp16
 70
     0
102
RTVSPropertyOp17
 70
     0
102
RTVSPropertyOp18
 70
     0
102
RTVSPropertyOp19
 70
     0
102
RTVSPropertyOp20
 70
     0
102
RTVSPropertyOp21
 70
     0
102
RTVSPropertyOp22
 70
     0
102
RTVSPropertyOp23
 70
     0
102
RTVSPropertyOp24
 70
     0
102
RTVSPropertyOp25
 70
     0
102
RTVSPropertyOp26
 70
     0
102
RTVSPropertyOp27
 70
     0
102
RTVSPropertyOp28
 70
     0
102
RTVSPropertyOp29
 70
     0
102
RTVSPropertyOp30
 70
     0
102
RTVSPropertyOp31
 70
     0
102
RTVSPropertyOp32
 70
     0
102
RTVSPropertyOp33
 70
     0
102
RTVSPropertyOp34
 70
     0
102
RTVSPropertyOp35
 70
     0
102
RTVSPropertyOp36
 70
     0
102
RTVSPropertyOp37
 70
     0
102
RTVSPropertyOp38
 70
     0
102
RTVSPropertyOp39
 70
     0
102
RTVSPropertyOp40
 70
     0
102
RTVSPropertyOp41
 70
     0
102
RTVSPropertyOp42
 70
     0
102
RTVSPropertyOp43
 70
     0
102
RTVSPropertyOp44
 70
     0
102
RTVSPropertyOp45
 70
     0
102
RTVSPropertyOp46
 70
     0
102
RTVSPropertyOp47
 70
     0
102
RTVSPropertyOp48
 70
     0
102
RTVSPropertyOp49
 70
     0
102
RTVSPropertyOp50
 70
     0
102
RTVSPropertyOp51
 70
     0
102
RTVSPropertyOp52
 70
     0
102
RTVSPropertyOp53
 70
     0
102
RTVSPropertyOp54
 70
     0
102
RTVSPropertyOp55
 70
     0
102
RTVSPropertyOp56
 70
     0
102
RTVSPropertyOp57
 70
     0
102
RTVSPropertyOp58
 70
     0
102
RTVSPropertyOp59
 70
     0
102
RTVSPropertyOp60
 70
     0
102
RTVSPropertyOp61
 70
     0
102
RTVSPropertyOp62
 70
     0
  0
XRECORD
  5
4E41
102
{ACAD_REACTORS
330
4E40
102
}
330
4E40
100
AcDbXrecord
280
     1
102
RTVSPost2010Prop28
280
     0
102
RTVSPost2010PropOp28
 70
     1
102
RTVSPost2010Prop29
280
     1
102
RTVSPost2010PropOp29
 70
     1
102
RTVSPost2010Prop30
280
     1
102
RTVSPost2010PropOp30
 70
     1
102
RTVSPost2010Prop31
280
     0
102
RTVSPost2010PropOp31
 70
     1
102
RTVSPost2010Prop32
280
     0
102
RTVSPost2010PropOp32
 70
     1
102
RTVSPost2010Prop33
280
     0
102
RTVSPost2010PropOp33
 70
     1
102
RTVSPost2010Prop34
280
     0
102
RTVSPost2010PropOp34
 70
     1
102
RTVSPost2010Prop35
280
     0
102
RTVSPost2010PropOp35
 70
     1
102
RTVSPost2010Prop36
280
     0
102
RTVSPost2010PropOp36
 70
     1
102
RTVSPost2010Prop37
 90
       50
102
RTVSPost2010PropOp37
 70
     1
102
RTVSPost2010Prop38
140
0.0
102
RTVSPost2010PropOp38
 70
     1
102
RTVSPost2010Prop39
140
1.0
102
RTVSPost2010PropOp39
 70
     1
102
RTVSPost2010Prop40
 90
        0
102
RTVSPost2010PropOp40
 70
     1
102
RTVSPost2010Prop41ColorIndex
 90
       18
102
RTVSPost2010Prop41ColorRGB
 90
        0
102
RTVSPost2010PropOp41
 70
     1
102
RTVSPost2010Prop42
 90
       50
102
RTVSPost2010PropOp42
 70
     1
102
RTVSPost2010Prop43
 90
        3
102
RTVSPost2010PropOp43
 70
     1
102
RTVSPost2010Prop44ColorIndex
 90
        5
102
RTVSPost2010Prop44ColorRGB
 90
      255
102
RTVSPost2010PropOp44
 70
     1
102
RTVSPost2010Prop45
280
     0
102
RTVSPost2010PropOp45
 70
     1
102
RTVSPost2010Prop46
 90
       50
102
RTVSPost2010PropOp46
 70
     1
102
RTVSPost2010Prop47
 90
       50
102
RTVSPost2010PropOp47
 70
     1
102
RTVSPost2010Prop48
 90
       50
102
RTVSPost2010PropOp48
 70
     1
102
RTVSPost2010Prop49
280
     0
102
RTVSPost2010PropOp49
 70
     1
102
RTVSPost2010Prop50
 90
       50
102
RTVSPost2010PropOp50
 70
     1
102
RTVSPost2010Prop51ColorIndex
 90
      256
102
RTVSPost2010Prop51ColorRGB
 90
-16777216
102
RTVSPost2010PropOp51
 70
     0
102
RTVSPost2010Prop52
140
1.0
102
RTVSPost2010PropOp52
 70
     0
102
RTVSPost2010Prop53
 90
        2
102
RTVSPost2010PropOp53
 70
     1
102
RTVSPost2010Prop54
  1
strokes_ogs.tif
102
RTVSPost2010PropOp54
 70
     1
102
RTVSPost2010Prop55
280
     0
102
RTVSPost2010PropOp55
 70
     1
102
RTVSPost2010Prop56
140
1.0
102
RTVSPost2010PropOp56
 70
     1
102
RTVSPost2010Prop57
140
1.0
102
RTVSPost2010PropOp57
 70
     1
102
RTVSPropertyOp0
 70
     1
102
RTVSPropertyOp1
 70
     1
102
RTVSPropertyOp2
 70
     1
102
RTVSPropertyOp3
 70
     1
102
RTVSPropertyOp4
 70
     1
102
RTVSPropertyOp5
 70
     1
102
RTVSPropertyOp6
 70
     1
102
RTVSPropertyOp7
 70
     1
102
RTVSPropertyOp8
 70
     1
102
RTVSPropertyOp9
 70
     1
102
RTVSPropertyOp10
 70
     1
102
RTVSPropertyOp11
 70
     1
102
RTVSPropertyOp12
 70
     1
102
RTVSPropertyOp13
 70
     1
102
RTVSPropertyOp14
 70
     1
102
RTVSPropertyOp15
 70
     1
102
RTVSPropertyOp16
 70
     1
102
RTVSPropertyOp17
 70
     1
102
RTVSPropertyOp18
 70
     1
102
RTVSPropertyOp19
 70
     1
102
RTVSPropertyOp20
 70
     1
102
RTVSPropertyOp21
 70
     1
102
RTVSPropertyOp22
 70
     1
102
RTVSPropertyOp23
 70
     1
102
RTVSPropertyOp24
 70
     1
102
RTVSPropertyOp25
 70
     1
102
RTVSPropertyOp26
 70
     1
102
RTVSPropertyOp27
 70
     1
102
RTVSPropertyOp28
 70
     1
102
RTVSPropertyOp29
 70
     1
102
RTVSPropertyOp30
 70
     1
102
RTVSPropertyOp31
 70
     1
102
RTVSPropertyOp32
 70
     1
102
RTVSPropertyOp33
 70
     1
102
RTVSPropertyOp34
 70
     1
102
RTVSPropertyOp35
 70
     1
102
RTVSPropertyOp36
 70
     1
102
RTVSPropertyOp37
 70
     1
102
RTVSPropertyOp38
 70
     1
102
RTVSPropertyOp39
 70
     1
102
RTVSPropertyOp40
 70
     1
102
RTVSPropertyOp41
 70
     1
102
RTVSPropertyOp42
 70
     1
102
RTVSPropertyOp43
 70
     1
102
RTVSPropertyOp44
 70
     1
102
RTVSPropertyOp45
 70
     1
102
RTVSPropertyOp46
 70
     1
102
RTVSPropertyOp47
 70
     1
102
RTVSPropertyOp48
 70
     1
102
RTVSPropertyOp49
 70
     1
102
RTVSPropertyOp50
 70
     1
102
RTVSPropertyOp51
 70
     0
102
RTVSPropertyOp52
 70
     0
102
RTVSPropertyOp53
 70
     1
102
RTVSPropertyOp54
 70
     1
102
RTVSPropertyOp55
 70
     1
102
RTVSPropertyOp56
 70
     1
102
RTVSPropertyOp57
 70
     1
102
RTVSPropertyOp58
 70
     1
102
RTVSPropertyOp59
 70
     1
102
RTVSPropertyOp60
 70
     1
102
RTVSPropertyOp61
 70
     1
102
RTVSPropertyOp62
 70
     1
  0
XRECORD
  5
4E25
102
{ACAD_REACTORS
330
4E24
102
}
330
4E24
100
AcDbXrecord
280
     1
102
RTVSPost2010Prop28
280
     0
102
RTVSPost2010PropOp28
 70
     1
102
RTVSPost2010Prop29
280
     1
102
RTVSPost2010PropOp29
 70
     1
102
RTVSPost2010Prop30
280
     1
102
RTVSPost2010PropOp30
 70
     1
102
RTVSPost2010Prop31
280
     0
102
RTVSPost2010PropOp31
 70
     1
102
RTVSPost2010Prop32
280
     0
102
RTVSPost2010PropOp32
 70
     1
102
RTVSPost2010Prop33
280
     0
102
RTVSPost2010PropOp33
 70
     1
102
RTVSPost2010Prop34
280
     0
102
RTVSPost2010PropOp34
 70
     1
102
RTVSPost2010Prop35
280
     0
102
RTVSPost2010PropOp35
 70
     1
102
RTVSPost2010Prop36
280
     0
102
RTVSPost2010PropOp36
 70
     1
102
RTVSPost2010Prop37
 90
       50
102
RTVSPost2010PropOp37
 70
     1
102
RTVSPost2010Prop38
140
0.0
102
RTVSPost2010PropOp38
 70
     1
102
RTVSPost2010Prop39
140
1.0
102
RTVSPost2010PropOp39
 70
     1
102
RTVSPost2010Prop40
 90
        0
102
RTVSPost2010PropOp40
 70
     1
102
RTVSPost2010Prop41ColorIndex
 90
       18
102
RTVSPost2010Prop41ColorRGB
 90
        0
102
RTVSPost2010PropOp41
 70
     1
102
RTVSPost2010Prop42
 90
       50
102
RTVSPost2010PropOp42
 70
     1
102
RTVSPost2010Prop43
 90
        3
102
RTVSPost2010PropOp43
 70
     1
102
RTVSPost2010Prop44ColorIndex
 90
        5
102
RTVSPost2010Prop44ColorRGB
 90
      255
102
RTVSPost2010PropOp44
 70
     1
102
RTVSPost2010Prop45
280
     0
102
RTVSPost2010PropOp45
 70
     1
102
RTVSPost2010Prop46
 90
       50
102
RTVSPost2010PropOp46
 70
     1
102
RTVSPost2010Prop47
 90
       50
102
RTVSPost2010PropOp47
 70
     1
102
RTVSPost2010Prop48
 90
       50
102
RTVSPost2010PropOp48
 70
     1
102
RTVSPost2010Prop49
280
     0
102
RTVSPost2010PropOp49
 70
     1
102
RTVSPost2010Prop50
 90
       50
102
RTVSPost2010PropOp50
 70
     1
102
RTVSPost2010Prop51ColorIndex
 90
      256
102
RTVSPost2010Prop51ColorRGB
 90
-16777216
102
RTVSPost2010PropOp51
 70
     0
102
RTVSPost2010Prop52
140
1.0
102
RTVSPost2010PropOp52
 70
     0
102
RTVSPost2010Prop53
 90
        2
102
RTVSPost2010PropOp53
 70
     1
102
RTVSPost2010Prop54
  1
strokes_ogs.tif
102
RTVSPost2010PropOp54
 70
     1
102
RTVSPost2010Prop55
280
     0
102
RTVSPost2010PropOp55
 70
     1
102
RTVSPost2010Prop56
140
1.0
102
RTVSPost2010PropOp56
 70
     1
102
RTVSPost2010Prop57
140
1.0
102
RTVSPost2010PropOp57
 70
     1
102
RTVSPropertyOp0
 70
     1
102
RTVSPropertyOp1
 70
     1
102
RTVSPropertyOp2
 70
     1
102
RTVSPropertyOp3
 70
     1
102
RTVSPropertyOp4
 70
     1
102
RTVSPropertyOp5
 70
     1
102
RTVSPropertyOp6
 70
     1
102
RTVSPropertyOp7
 70
     1
102
RTVSPropertyOp8
 70
     1
102
RTVSPropertyOp9
 70
     1
102
RTVSPropertyOp10
 70
     1
102
RTVSPropertyOp11
 70
     1
102
RTVSPropertyOp12
 70
     1
102
RTVSPropertyOp13
 70
     1
102
RTVSPropertyOp14
 70
     1
102
RTVSPropertyOp15
 70
     1
102
RTVSPropertyOp16
 70
     1
102
RTVSPropertyOp17
 70
     1
102
RTVSPropertyOp18
 70
     1
102
RTVSPropertyOp19
 70
     1
102
RTVSPropertyOp20
 70
     1
102
RTVSPropertyOp21
 70
     1
102
RTVSPropertyOp22
 70
     1
102
RTVSPropertyOp23
 70
     1
102
RTVSPropertyOp24
 70
     1
102
RTVSPropertyOp25
 70
     1
102
RTVSPropertyOp26
 70
     1
102
RTVSPropertyOp27
 70
     1
102
RTVSPropertyOp28
 70
     1
102
RTVSPropertyOp29
 70
     1
102
RTVSPropertyOp30
 70
     1
102
RTVSPropertyOp31
 70
     1
102
RTVSPropertyOp32
 70
     1
102
RTVSPropertyOp33
 70
     1
102
RTVSPropertyOp34
 70
     1
102
RTVSPropertyOp35
 70
     1
102
RTVSPropertyOp36
 70
     1
102
RTVSPropertyOp37
 70
     1
102
RTVSPropertyOp38
 70
     1
102
RTVSPropertyOp39
 70
     1
102
RTVSPropertyOp40
 70
     1
102
RTVSPropertyOp41
 70
     1
102
RTVSPropertyOp42
 70
     1
102
RTVSPropertyOp43
 70
     1
102
RTVSPropertyOp44
 70
     1
102
RTVSPropertyOp45
 70
     1
102
RTVSPropertyOp46
 70
     1
102
RTVSPropertyOp47
 70
     1
102
RTVSPropertyOp48
 70
     1
102
RTVSPropertyOp49
 70
     1
102
RTVSPropertyOp50
 70
     1
102
RTVSPropertyOp51
 70
     0
102
RTVSPropertyOp52
 70
     0
102
RTVSPropertyOp53
 70
     1
102
RTVSPropertyOp54
 70
     1
102
RTVSPropertyOp55
 70
     1
102
RTVSPropertyOp56
 70
     1
102
RTVSPropertyOp57
 70
     1
102
RTVSPropertyOp58
 70
     1
102
RTVSPropertyOp59
 70
     1
102
RTVSPropertyOp60
 70
     1
102
RTVSPropertyOp61
 70
     1
102
RTVSPropertyOp62
 70
     1
  0
XRECORD
  5
4E27
102
{ACAD_REACTORS
330
4E26
102
}
330
4E26
100
AcDbXrecord
280
     1
102
RTVSPost2010Prop28
280
     0
102
RTVSPost2010PropOp28
 70
     1
102
RTVSPost2010Prop29
280
     1
102
RTVSPost2010PropOp29
 70
     1
102
RTVSPost2010Prop30
280
     1
102
RTVSPost2010PropOp30
 70
     1
102
RTVSPost2010Prop31
280
     0
102
RTVSPost2010PropOp31
 70
     1
102
RTVSPost2010Prop32
280
     0
102
RTVSPost2010PropOp32
 70
     1
102
RTVSPost2010Prop33
280
     0
102
RTVSPost2010PropOp33
 70
     1
102
RTVSPost2010Prop34
280
     0
102
RTVSPost2010PropOp34
 70
     1
102
RTVSPost2010Prop35
280
     0
102
RTVSPost2010PropOp35
 70
     1
102
RTVSPost2010Prop36
280
     0
102
RTVSPost2010PropOp36
 70
     1
102
RTVSPost2010Prop37
 90
       50
102
RTVSPost2010PropOp37
 70
     1
102
RTVSPost2010Prop38
140
0.0
102
RTVSPost2010PropOp38
 70
     1
102
RTVSPost2010Prop39
140
1.0
102
RTVSPost2010PropOp39
 70
     1
102
RTVSPost2010Prop40
 90
        0
102
RTVSPost2010PropOp40
 70
     1
102
RTVSPost2010Prop41ColorIndex
 90
       18
102
RTVSPost2010Prop41ColorRGB
 90
        0
102
RTVSPost2010PropOp41
 70
     1
102
RTVSPost2010Prop42
 90
       50
102
RTVSPost2010PropOp42
 70
     1
102
RTVSPost2010Prop43
 90
        3
102
RTVSPost2010PropOp43
 70
     1
102
RTVSPost2010Prop44ColorIndex
 90
        5
102
RTVSPost2010Prop44ColorRGB
 90
      255
102
RTVSPost2010PropOp44
 70
     1
102
RTVSPost2010Prop45
280
     0
102
RTVSPost2010PropOp45
 70
     1
102
RTVSPost2010Prop46
 90
       50
102
RTVSPost2010PropOp46
 70
     1
102
RTVSPost2010Prop47
 90
       50
102
RTVSPost2010PropOp47
 70
     1
102
RTVSPost2010Prop48
 90
       50
102
RTVSPost2010PropOp48
 70
     1
102
RTVSPost2010Prop49
280
     0
102
RTVSPost2010PropOp49
 70
     1
102
RTVSPost2010Prop50
 90
       50
102
RTVSPost2010PropOp50
 70
     1
102
RTVSPost2010Prop51ColorIndex
 90
      256
102
RTVSPost2010Prop51ColorRGB
 90
-16777216
102
RTVSPost2010PropOp51
 70
     0
102
RTVSPost2010Prop52
140
1.0
102
RTVSPost2010PropOp52
 70
     0
102
RTVSPost2010Prop53
 90
        2
102
RTVSPost2010PropOp53
 70
     1
102
RTVSPost2010Prop54
  1
strokes_ogs.tif
102
RTVSPost2010PropOp54
 70
     1
102
RTVSPost2010Prop55
280
     0
102
RTVSPost2010PropOp55
 70
     1
102
RTVSPost2010Prop56
140
1.0
102
RTVSPost2010PropOp56
 70
     1
102
RTVSPost2010Prop57
140
1.0
102
RTVSPost2010PropOp57
 70
     1
102
RTVSPropertyOp0
 70
     1
102
RTVSPropertyOp1
 70
     1
102
RTVSPropertyOp2
 70
     1
102
RTVSPropertyOp3
 70
     1
102
RTVSPropertyOp4
 70
     1
102
RTVSPropertyOp5
 70
     1
102
RTVSPropertyOp6
 70
     1
102
RTVSPropertyOp7
 70
     1
102
RTVSPropertyOp8
 70
     1
102
RTVSPropertyOp9
 70
     1
102
RTVSPropertyOp10
 70
     1
102
RTVSPropertyOp11
 70
     1
102
RTVSPropertyOp12
 70
     1
102
RTVSPropertyOp13
 70
     1
102
RTVSPropertyOp14
 70
     1
102
RTVSPropertyOp15
 70
     1
102
RTVSPropertyOp16
 70
     1
102
RTVSPropertyOp17
 70
     1
102
RTVSPropertyOp18
 70
     1
102
RTVSPropertyOp19
 70
     1
102
RTVSPropertyOp20
 70
     1
102
RTVSPropertyOp21
 70
     1
102
RTVSPropertyOp22
 70
     1
102
RTVSPropertyOp23
 70
     1
102
RTVSPropertyOp24
 70
     1
102
RTVSPropertyOp25
 70
     1
102
RTVSPropertyOp26
 70
     1
102
RTVSPropertyOp27
 70
     1
102
RTVSPropertyOp28
 70
     1
102
RTVSPropertyOp29
 70
     1
102
RTVSPropertyOp30
 70
     1
102
RTVSPropertyOp31
 70
     1
102
RTVSPropertyOp32
 70
     1
102
RTVSPropertyOp33
 70
     1
102
RTVSPropertyOp34
 70
     1
102
RTVSPropertyOp35
 70
     1
102
RTVSPropertyOp36
 70
     1
102
RTVSPropertyOp37
 70
     1
102
RTVSPropertyOp38
 70
     1
102
RTVSPropertyOp39
 70
     1
102
RTVSPropertyOp40
 70
     1
102
RTVSPropertyOp41
 70
     1
102
RTVSPropertyOp42
 70
     1
102
RTVSPropertyOp43
 70
     1
102
RTVSPropertyOp44
 70
     1
102
RTVSPropertyOp45
 70
     1
102
RTVSPropertyOp46
 70
     1
102
RTVSPropertyOp47
 70
     1
102
RTVSPropertyOp48
 70
     1
102
RTVSPropertyOp49
 70
     1
102
RTVSPropertyOp50
 70
     1
102
RTVSPropertyOp51
 70
     0
102
RTVSPropertyOp52
 70
     0
102
RTVSPropertyOp53
 70
     1
102
RTVSPropertyOp54
 70
     1
102
RTVSPropertyOp55
 70
     1
102
RTVSPropertyOp56
 70
     1
102
RTVSPropertyOp57
 70
     1
102
RTVSPropertyOp58
 70
     1
102
RTVSPropertyOp59
 70
     1
102
RTVSPropertyOp60
 70
     1
102
RTVSPropertyOp61
 70
     1
102
RTVSPropertyOp62
 70
     1
  0
XRECORD
  5
4E29
102
{ACAD_REACTORS
330
4E28
102
}
330
4E28
100
AcDbXrecord
280
     1
102
RTVSPost2010Prop28
280
     0
102
RTVSPost2010PropOp28
 70
     1
102
RTVSPost2010Prop29
280
     1
102
RTVSPost2010PropOp29
 70
     1
102
RTVSPost2010Prop30
280
     1
102
RTVSPost2010PropOp30
 70
     1
102
RTVSPost2010Prop31
280
     0
102
RTVSPost2010PropOp31
 70
     1
102
RTVSPost2010Prop32
280
     0
102
RTVSPost2010PropOp32
 70
     1
102
RTVSPost2010Prop33
280
     0
102
RTVSPost2010PropOp33
 70
     1
102
RTVSPost2010Prop34
280
     0
102
RTVSPost2010PropOp34
 70
     1
102
RTVSPost2010Prop35
280
     0
102
RTVSPost2010PropOp35
 70
     1
102
RTVSPost2010Prop36
280
     0
102
RTVSPost2010PropOp36
 70
     1
102
RTVSPost2010Prop37
 90
       50
102
RTVSPost2010PropOp37
 70
     1
102
RTVSPost2010Prop38
140
0.0
102
RTVSPost2010PropOp38
 70
     1
102
RTVSPost2010Prop39
140
1.0
102
RTVSPost2010PropOp39
 70
     1
102
RTVSPost2010Prop40
 90
        0
102
RTVSPost2010PropOp40
 70
     1
102
RTVSPost2010Prop41ColorIndex
 90
       18
102
RTVSPost2010Prop41ColorRGB
 90
        0
102
RTVSPost2010PropOp41
 70
     1
102
RTVSPost2010Prop42
 90
       50
102
RTVSPost2010PropOp42
 70
     1
102
RTVSPost2010Prop43
 90
        3
102
RTVSPost2010PropOp43
 70
     1
102
RTVSPost2010Prop44ColorIndex
 90
        5
102
RTVSPost2010Prop44ColorRGB
 90
      255
102
RTVSPost2010PropOp44
 70
     1
102
RTVSPost2010Prop45
280
     0
102
RTVSPost2010PropOp45
 70
     1
102
RTVSPost2010Prop46
 90
       50
102
RTVSPost2010PropOp46
 70
     1
102
RTVSPost2010Prop47
 90
       50
102
RTVSPost2010PropOp47
 70
     1
102
RTVSPost2010Prop48
 90
       50
102
RTVSPost2010PropOp48
 70
     1
102
RTVSPost2010Prop49
280
     0
102
RTVSPost2010PropOp49
 70
     1
102
RTVSPost2010Prop50
 90
       50
102
RTVSPost2010PropOp50
 70
     1
102
RTVSPost2010Prop51ColorIndex
 90
      256
102
RTVSPost2010Prop51ColorRGB
 90
-16777216
102
RTVSPost2010PropOp51
 70
     0
102
RTVSPost2010Prop52
140
1.0
102
RTVSPost2010PropOp52
 70
     0
102
RTVSPost2010Prop53
 90
        2
102
RTVSPost2010PropOp53
 70
     1
102
RTVSPost2010Prop54
  1
strokes_ogs.tif
102
RTVSPost2010PropOp54
 70
     1
102
RTVSPost2010Prop55
280
     0
102
RTVSPost2010PropOp55
 70
     1
102
RTVSPost2010Prop56
140
1.0
102
RTVSPost2010PropOp56
 70
     1
102
RTVSPost2010Prop57
140
1.0
102
RTVSPost2010PropOp57
 70
     1
102
RTVSPropertyOp0
 70
     1
102
RTVSPropertyOp1
 70
     1
102
RTVSPropertyOp2
 70
     1
102
RTVSPropertyOp3
 70
     1
102
RTVSPropertyOp4
 70
     1
102
RTVSPropertyOp5
 70
     1
102
RTVSPropertyOp6
 70
     1
102
RTVSPropertyOp7
 70
     1
102
RTVSPropertyOp8
 70
     1
102
RTVSPropertyOp9
 70
     1
102
RTVSPropertyOp10
 70
     1
102
RTVSPropertyOp11
 70
     1
102
RTVSPropertyOp12
 70
     1
102
RTVSPropertyOp13
 70
     1
102
RTVSPropertyOp14
 70
     1
102
RTVSPropertyOp15
 70
     1
102
RTVSPropertyOp16
 70
     1
102
RTVSPropertyOp17
 70
     1
102
RTVSPropertyOp18
 70
     1
102
RTVSPropertyOp19
 70
     1
102
RTVSPropertyOp20
 70
     1
102
RTVSPropertyOp21
 70
     1
102
RTVSPropertyOp22
 70
     1
102
RTVSPropertyOp23
 70
     1
102
RTVSPropertyOp24
 70
     1
102
RTVSPropertyOp25
 70
     1
102
RTVSPropertyOp26
 70
     1
102
RTVSPropertyOp27
 70
     1
102
RTVSPropertyOp28
 70
     1
102
RTVSPropertyOp29
 70
     1
102
RTVSPropertyOp30
 70
     1
102
RTVSPropertyOp31
 70
     1
102
RTVSPropertyOp32
 70
     1
102
RTVSPropertyOp33
 70
     1
102
RTVSPropertyOp34
 70
     1
102
RTVSPropertyOp35
 70
     1
102
RTVSPropertyOp36
 70
     1
102
RTVSPropertyOp37
 70
     1
102
RTVSPropertyOp38
 70
     1
102
RTVSPropertyOp39
 70
     1
102
RTVSPropertyOp40
 70
     1
102
RTVSPropertyOp41
 70
     1
102
RTVSPropertyOp42
 70
     1
102
RTVSPropertyOp43
 70
     1
102
RTVSPropertyOp44
 70
     1
102
RTVSPropertyOp45
 70
     1
102
RTVSPropertyOp46
 70
     1
102
RTVSPropertyOp47
 70
     1
102
RTVSPropertyOp48
 70
     1
102
RTVSPropertyOp49
 70
     1
102
RTVSPropertyOp50
 70
     1
102
RTVSPropertyOp51
 70
     0
102
RTVSPropertyOp52
 70
     0
102
RTVSPropertyOp53
 70
     1
102
RTVSPropertyOp54
 70
     1
102
RTVSPropertyOp55
 70
     1
102
RTVSPropertyOp56
 70
     1
102
RTVSPropertyOp57
 70
     1
102
RTVSPropertyOp58
 70
     1
102
RTVSPropertyOp59
 70
     1
102
RTVSPropertyOp60
 70
     1
102
RTVSPropertyOp61
 70
     1
102
RTVSPropertyOp62
 70
     1
  0
XRECORD
  5
4E2B
102
{ACAD_REACTORS
330
4E2A
102
}
330
4E2A
100
AcDbXrecord
280
     1
102
RTVSPost2010Prop28
280
     0
102
RTVSPost2010PropOp28
 70
     1
102
RTVSPost2010Prop29
280
     1
102
RTVSPost2010PropOp29
 70
     1
102
RTVSPost2010Prop30
280
     1
102
RTVSPost2010PropOp30
 70
     1
102
RTVSPost2010Prop31
280
     0
102
RTVSPost2010PropOp31
 70
     1
102
RTVSPost2010Prop32
280
     0
102
RTVSPost2010PropOp32
 70
     1
102
RTVSPost2010Prop33
280
     0
102
RTVSPost2010PropOp33
 70
     1
102
RTVSPost2010Prop34
280
     0
102
RTVSPost2010PropOp34
 70
     1
102
RTVSPost2010Prop35
280
     0
102
RTVSPost2010PropOp35
 70
     1
102
RTVSPost2010Prop36
280
     0
102
RTVSPost2010PropOp36
 70
     1
102
RTVSPost2010Prop37
 90
       50
102
RTVSPost2010PropOp37
 70
     1
102
RTVSPost2010Prop38
140
0.0
102
RTVSPost2010PropOp38
 70
     1
102
RTVSPost2010Prop39
140
1.0
102
RTVSPost2010PropOp39
 70
     1
102
RTVSPost2010Prop40
 90
        0
102
RTVSPost2010PropOp40
 70
     1
102
RTVSPost2010Prop41ColorIndex
 90
       18
102
RTVSPost2010Prop41ColorRGB
 90
        0
102
RTVSPost2010PropOp41
 70
     1
102
RTVSPost2010Prop42
 90
       50
102
RTVSPost2010PropOp42
 70
     1
102
RTVSPost2010Prop43
 90
        3
102
RTVSPost2010PropOp43
 70
     1
102
RTVSPost2010Prop44ColorIndex
 90
        5
102
RTVSPost2010Prop44ColorRGB
 90
      255
102
RTVSPost2010PropOp44
 70
     1
102
RTVSPost2010Prop45
280
     0
102
RTVSPost2010PropOp45
 70
     1
102
RTVSPost2010Prop46
 90
       50
102
RTVSPost2010PropOp46
 70
     1
102
RTVSPost2010Prop47
 90
       50
102
RTVSPost2010PropOp47
 70
     1
102
RTVSPost2010Prop48
 90
       50
102
RTVSPost2010PropOp48
 70
     1
102
RTVSPost2010Prop49
280
     0
102
RTVSPost2010PropOp49
 70
     1
102
RTVSPost2010Prop50
 90
       50
102
RTVSPost2010PropOp50
 70
     1
102
RTVSPost2010Prop51ColorIndex
 90
      256
102
RTVSPost2010Prop51ColorRGB
 90
-16777216
102
RTVSPost2010PropOp51
 70
     0
102
RTVSPost2010Prop52
140
1.0
102
RTVSPost2010PropOp52
 70
     0
102
RTVSPost2010Prop53
 90
        2
102
RTVSPost2010PropOp53
 70
     1
102
RTVSPost2010Prop54
  1
strokes_ogs.tif
102
RTVSPost2010PropOp54
 70
     1
102
RTVSPost2010Prop55
280
     0
102
RTVSPost2010PropOp55
 70
     1
102
RTVSPost2010Prop56
140
1.0
102
RTVSPost2010PropOp56
 70
     1
102
RTVSPost2010Prop57
140
1.0
102
RTVSPost2010PropOp57
 70
     1
102
RTVSPropertyOp0
 70
     1
102
RTVSPropertyOp1
 70
     1
102
RTVSPropertyOp2
 70
     1
102
RTVSPropertyOp3
 70
     1
102
RTVSPropertyOp4
 70
     1
102
RTVSPropertyOp5
 70
     1
102
RTVSPropertyOp6
 70
     1
102
RTVSPropertyOp7
 70
     1
102
RTVSPropertyOp8
 70
     1
102
RTVSPropertyOp9
 70
     1
102
RTVSPropertyOp10
 70
     1
102
RTVSPropertyOp11
 70
     1
102
RTVSPropertyOp12
 70
     1
102
RTVSPropertyOp13
 70
     1
102
RTVSPropertyOp14
 70
     1
102
RTVSPropertyOp15
 70
     1
102
RTVSPropertyOp16
 70
     1
102
RTVSPropertyOp17
 70
     1
102
RTVSPropertyOp18
 70
     1
102
RTVSPropertyOp19
 70
     1
102
RTVSPropertyOp20
 70
     1
102
RTVSPropertyOp21
 70
     1
102
RTVSPropertyOp22
 70
     1
102
RTVSPropertyOp23
 70
     1
102
RTVSPropertyOp24
 70
     1
102
RTVSPropertyOp25
 70
     1
102
RTVSPropertyOp26
 70
     1
102
RTVSPropertyOp27
 70
     1
102
RTVSPropertyOp28
 70
     1
102
RTVSPropertyOp29
 70
     1
102
RTVSPropertyOp30
 70
     1
102
RTVSPropertyOp31
 70
     1
102
RTVSPropertyOp32
 70
     1
102
RTVSPropertyOp33
 70
     1
102
RTVSPropertyOp34
 70
     1
102
RTVSPropertyOp35
 70
     1
102
RTVSPropertyOp36
 70
     1
102
RTVSPropertyOp37
 70
     1
102
RTVSPropertyOp38
 70
     1
102
RTVSPropertyOp39
 70
     1
102
RTVSPropertyOp40
 70
     1
102
RTVSPropertyOp41
 70
     1
102
RTVSPropertyOp42
 70
     1
102
RTVSPropertyOp43
 70
     1
102
RTVSPropertyOp44
 70
     1
102
RTVSPropertyOp45
 70
     1
102
RTVSPropertyOp46
 70
     1
102
RTVSPropertyOp47
 70
     1
102
RTVSPropertyOp48
 70
     1
102
RTVSPropertyOp49
 70
     1
102
RTVSPropertyOp50
 70
     1
102
RTVSPropertyOp51
 70
     0
102
RTVSPropertyOp52
 70
     0
102
RTVSPropertyOp53
 70
     1
102
RTVSPropertyOp54
 70
     1
102
RTVSPropertyOp55
 70
     1
102
RTVSPropertyOp56
 70
     1
102
RTVSPropertyOp57
 70
     1
102
RTVSPropertyOp58
 70
     1
102
RTVSPropertyOp59
 70
     1
102
RTVSPropertyOp60
 70
     1
102
RTVSPropertyOp61
 70
     1
102
RTVSPropertyOp62
 70
     1
  0
XRECORD
  5
4E33
102
{ACAD_REACTORS
330
4E32
102
}
330
4E32
100
AcDbXrecord
280
     1
102
RTVSPost2010Prop28
280
     0
102
RTVSPost2010PropOp28
 70
     1
102
RTVSPost2010Prop29
280
     1
102
RTVSPost2010PropOp29
 70
     1
102
RTVSPost2010Prop30
280
     1
102
RTVSPost2010PropOp30
 70
     1
102
RTVSPost2010Prop31
280
     0
102
RTVSPost2010PropOp31
 70
     1
102
RTVSPost2010Prop32
280
     0
102
RTVSPost2010PropOp32
 70
     1
102
RTVSPost2010Prop33
280
     0
102
RTVSPost2010PropOp33
 70
     1
102
RTVSPost2010Prop34
280
     0
102
RTVSPost2010PropOp34
 70
     1
102
RTVSPost2010Prop35
280
     0
102
RTVSPost2010PropOp35
 70
     1
102
RTVSPost2010Prop36
280
     0
102
RTVSPost2010PropOp36
 70
     1
102
RTVSPost2010Prop37
 90
       50
102
RTVSPost2010PropOp37
 70
     1
102
RTVSPost2010Prop38
140
0.0
102
RTVSPost2010PropOp38
 70
     1
102
RTVSPost2010Prop39
140
1.0
102
RTVSPost2010PropOp39
 70
     1
102
RTVSPost2010Prop40
 90
        0
102
RTVSPost2010PropOp40
 70
     1
102
RTVSPost2010Prop41ColorIndex
 90
       18
102
RTVSPost2010Prop41ColorRGB
 90
        0
102
RTVSPost2010PropOp41
 70
     1
102
RTVSPost2010Prop42
 90
       50
102
RTVSPost2010PropOp42
 70
     1
102
RTVSPost2010Prop43
 90
        3
102
RTVSPost2010PropOp43
 70
     1
102
RTVSPost2010Prop44ColorIndex
 90
        5
102
RTVSPost2010Prop44ColorRGB
 90
      255
102
RTVSPost2010PropOp44
 70
     1
102
RTVSPost2010Prop45
280
     0
102
RTVSPost2010PropOp45
 70
     1
102
RTVSPost2010Prop46
 90
       50
102
RTVSPost2010PropOp46
 70
     1
102
RTVSPost2010Prop47
 90
       50
102
RTVSPost2010PropOp47
 70
     1
102
RTVSPost2010Prop48
 90
       50
102
RTVSPost2010PropOp48
 70
     1
102
RTVSPost2010Prop49
280
     0
102
RTVSPost2010PropOp49
 70
     1
102
RTVSPost2010Prop50
 90
       50
102
RTVSPost2010PropOp50
 70
     1
102
RTVSPost2010Prop51ColorIndex
 90
      256
102
RTVSPost2010Prop51ColorRGB
 90
-16777216
102
RTVSPost2010PropOp51
 70
     0
102
RTVSPost2010Prop52
140
1.0
102
RTVSPost2010PropOp52
 70
     0
102
RTVSPost2010Prop53
 90
        2
102
RTVSPost2010PropOp53
 70
     1
102
RTVSPost2010Prop54
  1
strokes_ogs.tif
102
RTVSPost2010PropOp54
 70
     1
102
RTVSPost2010Prop55
280
     0
102
RTVSPost2010PropOp55
 70
     1
102
RTVSPost2010Prop56
140
1.0
102
RTVSPost2010PropOp56
 70
     1
102
RTVSPost2010Prop57
140
1.0
102
RTVSPost2010PropOp57
 70
     1
102
RTVSPropertyOp0
 70
     1
102
RTVSPropertyOp1
 70
     1
102
RTVSPropertyOp2
 70
     1
102
RTVSPropertyOp3
 70
     1
102
RTVSPropertyOp4
 70
     1
102
RTVSPropertyOp5
 70
     1
102
RTVSPropertyOp6
 70
     1
102
RTVSPropertyOp7
 70
     1
102
RTVSPropertyOp8
 70
     1
102
RTVSPropertyOp9
 70
     1
102
RTVSPropertyOp10
 70
     1
102
RTVSPropertyOp11
 70
     1
102
RTVSPropertyOp12
 70
     1
102
RTVSPropertyOp13
 70
     1
102
RTVSPropertyOp14
 70
     1
102
RTVSPropertyOp15
 70
     1
102
RTVSPropertyOp16
 70
     1
102
RTVSPropertyOp17
 70
     1
102
RTVSPropertyOp18
 70
     1
102
RTVSPropertyOp19
 70
     1
102
RTVSPropertyOp20
 70
     1
102
RTVSPropertyOp21
 70
     1
102
RTVSPropertyOp22
 70
     1
102
RTVSPropertyOp23
 70
     1
102
RTVSPropertyOp24
 70
     1
102
RTVSPropertyOp25
 70
     1
102
RTVSPropertyOp26
 70
     1
102
RTVSPropertyOp27
 70
     1
102
RTVSPropertyOp28
 70
     1
102
RTVSPropertyOp29
 70
     1
102
RTVSPropertyOp30
 70
     1
102
RTVSPropertyOp31
 70
     1
102
RTVSPropertyOp32
 70
     1
102
RTVSPropertyOp33
 70
     1
102
RTVSPropertyOp34
 70
     1
102
RTVSPropertyOp35
 70
     1
102
RTVSPropertyOp36
 70
     1
102
RTVSPropertyOp37
 70
     1
102
RTVSPropertyOp38
 70
     1
102
RTVSPropertyOp39
 70
     1
102
RTVSPropertyOp40
 70
     1
102
RTVSPropertyOp41
 70
     1
102
RTVSPropertyOp42
 70
     1
102
RTVSPropertyOp43
 70
     1
102
RTVSPropertyOp44
 70
     1
102
RTVSPropertyOp45
 70
     1
102
RTVSPropertyOp46
 70
     1
102
RTVSPropertyOp47
 70
     1
102
RTVSPropertyOp48
 70
     1
102
RTVSPropertyOp49
 70
     1
102
RTVSPropertyOp50
 70
     1
102
RTVSPropertyOp51
 70
     0
102
RTVSPropertyOp52
 70
     0
102
RTVSPropertyOp53
 70
     1
102
RTVSPropertyOp54
 70
     1
102
RTVSPropertyOp55
 70
     1
102
RTVSPropertyOp56
 70
     1
102
RTVSPropertyOp57
 70
     1
102
RTVSPropertyOp58
 70
     1
102
RTVSPropertyOp59
 70
     1
102
RTVSPropertyOp60
 70
     1
102
RTVSPropertyOp61
 70
     1
102
RTVSPropertyOp62
 70
     1
  0
XRECORD
  5
4E4F
102
{ACAD_REACTORS
330
4E4E
102
}
330
4E4E
100
AcDbXrecord
280
     1
102
RTVSPost2010Prop28
280
     0
102
RTVSPost2010PropOp28
 70
     0
102
RTVSPost2010Prop29
280
     1
102
RTVSPost2010PropOp29
 70
     0
102
RTVSPost2010Prop30
280
     1
102
RTVSPost2010PropOp30
 70
     0
102
RTVSPost2010Prop31
280
     0
102
RTVSPost2010PropOp31
 70
     0
102
RTVSPost2010Prop32
280
     0
102
RTVSPost2010PropOp32
 70
     0
102
RTVSPost2010Prop33
280
     0
102
RTVSPost2010PropOp33
 70
     0
102
RTVSPost2010Prop34
280
     0
102
RTVSPost2010PropOp34
 70
     0
102
RTVSPost2010Prop35
280
     0
102
RTVSPost2010PropOp35
 70
     0
102
RTVSPost2010Prop36
280
     0
102
RTVSPost2010PropOp36
 70
     0
102
RTVSPost2010Prop37
 90
       50
102
RTVSPost2010PropOp37
 70
     0
102
RTVSPost2010Prop38
140
0.0
102
RTVSPost2010PropOp38
 70
     0
102
RTVSPost2010Prop39
140
1.0
102
RTVSPost2010PropOp39
 70
     0
102
RTVSPost2010Prop40
 90
        0
102
RTVSPost2010PropOp40
 70
     0
102
RTVSPost2010Prop41ColorIndex
 90
       18
102
RTVSPost2010Prop41ColorRGB
 90
        0
102
RTVSPost2010PropOp41
 70
     0
102
RTVSPost2010Prop42
 90
       50
102
RTVSPost2010PropOp42
 70
     0
102
RTVSPost2010Prop43
 90
        3
102
RTVSPost2010PropOp43
 70
     0
102
RTVSPost2010Prop44ColorIndex
 90
        5
102
RTVSPost2010Prop44ColorRGB
 90
      255
102
RTVSPost2010PropOp44
 70
     0
102
RTVSPost2010Prop45
280
     0
102
RTVSPost2010PropOp45
 70
     0
102
RTVSPost2010Prop46
 90
       50
102
RTVSPost2010PropOp46
 70
     0
102
RTVSPost2010Prop47
 90
       50
102
RTVSPost2010PropOp47
 70
     0
102
RTVSPost2010Prop48
 90
       50
102
RTVSPost2010PropOp48
 70
     0
102
RTVSPost2010Prop49
280
     0
102
RTVSPost2010PropOp49
 70
     0
102
RTVSPost2010Prop50
 90
       50
102
RTVSPost2010PropOp50
 70
     0
102
RTVSPost2010Prop51ColorIndex
 90
      256
102
RTVSPost2010Prop51ColorRGB
 90
-16777216
102
RTVSPost2010PropOp51
 70
     0
102
RTVSPost2010Prop52
140
1.0
102
RTVSPost2010PropOp52
 70
     0
102
RTVSPost2010Prop53
 90
        2
102
RTVSPost2010PropOp53
 70
     0
102
RTVSPost2010Prop54
  1
strokes_ogs.tif
102
RTVSPost2010PropOp54
 70
     0
102
RTVSPost2010Prop55
280
     0
102
RTVSPost2010PropOp55
 70
     0
102
RTVSPost2010Prop56
140
1.0
102
RTVSPost2010PropOp56
 70
     0
102
RTVSPost2010Prop57
140
1.0
102
RTVSPost2010PropOp57
 70
     0
102
RTVSPropertyOp0
 70
     0
102
RTVSPropertyOp1
 70
     0
102
RTVSPropertyOp2
 70
     0
102
RTVSPropertyOp3
 70
     0
102
RTVSPropertyOp4
 70
     0
102
RTVSPropertyOp5
 70
     0
102
RTVSPropertyOp6
 70
     0
102
RTVSPropertyOp7
 70
     0
102
RTVSPropertyOp8
 70
     0
102
RTVSPropertyOp9
 70
     0
102
RTVSPropertyOp10
 70
     0
102
RTVSPropertyOp11
 70
     0
102
RTVSPropertyOp12
 70
     0
102
RTVSPropertyOp13
 70
     0
102
RTVSPropertyOp14
 70
     2
102
RTVSPropertyOp15
 70
     0
102
RTVSPropertyOp16
 70
     0
102
RTVSPropertyOp17
 70
     0
102
RTVSPropertyOp18
 70
     0
102
RTVSPropertyOp19
 70
     0
102
RTVSPropertyOp20
 70
     0
102
RTVSPropertyOp21
 70
     0
102
RTVSPropertyOp22
 70
     0
102
RTVSPropertyOp23
 70
     0
102
RTVSPropertyOp24
 70
     0
102
RTVSPropertyOp25
 70
     0
102
RTVSPropertyOp26
 70
     0
102
RTVSPropertyOp27
 70
     0
102
RTVSPropertyOp28
 70
     0
102
RTVSPropertyOp29
 70
     0
102
RTVSPropertyOp30
 70
     0
102
RTVSPropertyOp31
 70
     0
102
RTVSPropertyOp32
 70
     0
102
RTVSPropertyOp33
 70
     0
102
RTVSPropertyOp34
 70
     0
102
RTVSPropertyOp35
 70
     0
102
RTVSPropertyOp36
 70
     0
102
RTVSPropertyOp37
 70
     0
102
RTVSPropertyOp38
 70
     0
102
RTVSPropertyOp39
 70
     0
102
RTVSPropertyOp40
 70
     0
102
RTVSPropertyOp41
 70
     0
102
RTVSPropertyOp42
 70
     0
102
RTVSPropertyOp43
 70
     0
102
RTVSPropertyOp44
 70
     0
102
RTVSPropertyOp45
 70
     0
102
RTVSPropertyOp46
 70
     0
102
RTVSPropertyOp47
 70
     0
102
RTVSPropertyOp48
 70
     0
102
RTVSPropertyOp49
 70
     0
102
RTVSPropertyOp50
 70
     0
102
RTVSPropertyOp51
 70
     0
102
RTVSPropertyOp52
 70
     0
102
RTVSPropertyOp53
 70
     0
102
RTVSPropertyOp54
 70
     0
102
RTVSPropertyOp55
 70
     0
102
RTVSPropertyOp56
 70
     0
102
RTVSPropertyOp57
 70
     0
102
RTVSPropertyOp58
 70
     0
102
RTVSPropertyOp59
 70
     0
102
RTVSPropertyOp60
 70
     0
102
RTVSPropertyOp61
 70
     0
102
RTVSPropertyOp62
 70
     0
  0
XRECORD
  5
4E3F
102
{ACAD_REACTORS
330
4E3E
102
}
330
4E3E
100
AcDbXrecord
280
     1
102
RTVSPost2010Prop28
280
     0
102
RTVSPost2010PropOp28
 70
     1
102
RTVSPost2010Prop29
280
     1
102
RTVSPost2010PropOp29
 70
     1
102
RTVSPost2010Prop30
280
     1
102
RTVSPost2010PropOp30
 70
     1
102
RTVSPost2010Prop31
280
     0
102
RTVSPost2010PropOp31
 70
     1
102
RTVSPost2010Prop32
280
     0
102
RTVSPost2010PropOp32
 70
     1
102
RTVSPost2010Prop33
280
     0
102
RTVSPost2010PropOp33
 70
     1
102
RTVSPost2010Prop34
280
     0
102
RTVSPost2010PropOp34
 70
     1
102
RTVSPost2010Prop35
280
     0
102
RTVSPost2010PropOp35
 70
     1
102
RTVSPost2010Prop36
280
     0
102
RTVSPost2010PropOp36
 70
     1
102
RTVSPost2010Prop37
 90
       50
102
RTVSPost2010PropOp37
 70
     1
102
RTVSPost2010Prop38
140
0.0
102
RTVSPost2010PropOp38
 70
     1
102
RTVSPost2010Prop39
140
1.0
102
RTVSPost2010PropOp39
 70
     1
102
RTVSPost2010Prop40
 90
        0
102
RTVSPost2010PropOp40
 70
     1
102
RTVSPost2010Prop41ColorIndex
 90
       18
102
RTVSPost2010Prop41ColorRGB
 90
        0
102
RTVSPost2010PropOp41
 70
     1
102
RTVSPost2010Prop42
 90
       50
102
RTVSPost2010PropOp42
 70
     1
102
RTVSPost2010Prop43
 90
        3
102
RTVSPost2010PropOp43
 70
     1
102
RTVSPost2010Prop44ColorIndex
 90
        5
102
RTVSPost2010Prop44ColorRGB
 90
      255
102
RTVSPost2010PropOp44
 70
     1
102
RTVSPost2010Prop45
280
     0
102
RTVSPost2010PropOp45
 70
     1
102
RTVSPost2010Prop46
 90
       50
102
RTVSPost2010PropOp46
 70
     1
102
RTVSPost2010Prop47
 90
       50
102
RTVSPost2010PropOp47
 70
     1
102
RTVSPost2010Prop48
 90
       50
102
RTVSPost2010PropOp48
 70
     1
102
RTVSPost2010Prop49
280
     0
102
RTVSPost2010PropOp49
 70
     1
102
RTVSPost2010Prop50
 90
       50
102
RTVSPost2010PropOp50
 70
     1
102
RTVSPost2010Prop51ColorIndex
 90
      256
102
RTVSPost2010Prop51ColorRGB
 90
-16777216
102
RTVSPost2010PropOp51
 70
     0
102
RTVSPost2010Prop52
140
1.0
102
RTVSPost2010PropOp52
 70
     0
102
RTVSPost2010Prop53
 90
        2
102
RTVSPost2010PropOp53
 70
     1
102
RTVSPost2010Prop54
  1
strokes_ogs.tif
102
RTVSPost2010PropOp54
 70
     1
102
RTVSPost2010Prop55
280
     0
102
RTVSPost2010PropOp55
 70
     1
102
RTVSPost2010Prop56
140
1.0
102
RTVSPost2010PropOp56
 70
     1
102
RTVSPost2010Prop57
140
1.0
102
RTVSPost2010PropOp57
 70
     1
102
RTVSPropertyOp0
 70
     1
102
RTVSPropertyOp1
 70
     1
102
RTVSPropertyOp2
 70
     1
102
RTVSPropertyOp3
 70
     1
102
RTVSPropertyOp4
 70
     1
102
RTVSPropertyOp5
 70
     1
102
RTVSPropertyOp6
 70
     1
102
RTVSPropertyOp7
 70
     1
102
RTVSPropertyOp8
 70
     1
102
RTVSPropertyOp9
 70
     1
102
RTVSPropertyOp10
 70
     1
102
RTVSPropertyOp11
 70
     1
102
RTVSPropertyOp12
 70
     1
102
RTVSPropertyOp13
 70
     1
102
RTVSPropertyOp14
 70
     1
102
RTVSPropertyOp15
 70
     1
102
RTVSPropertyOp16
 70
     1
102
RTVSPropertyOp17
 70
     1
102
RTVSPropertyOp18
 70
     1
102
RTVSPropertyOp19
 70
     1
102
RTVSPropertyOp20
 70
     1
102
RTVSPropertyOp21
 70
     1
102
RTVSPropertyOp22
 70
     1
102
RTVSPropertyOp23
 70
     1
102
RTVSPropertyOp24
 70
     1
102
RTVSPropertyOp25
 70
     1
102
RTVSPropertyOp26
 70
     1
102
RTVSPropertyOp27
 70
     1
102
RTVSPropertyOp28
 70
     1
102
RTVSPropertyOp29
 70
     1
102
RTVSPropertyOp30
 70
     1
102
RTVSPropertyOp31
 70
     1
102
RTVSPropertyOp32
 70
     1
102
RTVSPropertyOp33
 70
     1
102
RTVSPropertyOp34
 70
     1
102
RTVSPropertyOp35
 70
     1
102
RTVSPropertyOp36
 70
     1
102
RTVSPropertyOp37
 70
     1
102
RTVSPropertyOp38
 70
     1
102
RTVSPropertyOp39
 70
     1
102
RTVSPropertyOp40
 70
     1
102
RTVSPropertyOp41
 70
     1
102
RTVSPropertyOp42
 70
     1
102
RTVSPropertyOp43
 70
     1
102
RTVSPropertyOp44
 70
     1
102
RTVSPropertyOp45
 70
     1
102
RTVSPropertyOp46
 70
     1
102
RTVSPropertyOp47
 70
     1
102
RTVSPropertyOp48
 70
     1
102
RTVSPropertyOp49
 70
     1
102
RTVSPropertyOp50
 70
     1
102
RTVSPropertyOp51
 70
     0
102
RTVSPropertyOp52
 70
     0
102
RTVSPropertyOp53
 70
     1
102
RTVSPropertyOp54
 70
     1
102
RTVSPropertyOp55
 70
     1
102
RTVSPropertyOp56
 70
     1
102
RTVSPropertyOp57
 70
     1
102
RTVSPropertyOp58
 70
     1
102
RTVSPropertyOp59
 70
     1
102
RTVSPropertyOp60
 70
     1
102
RTVSPropertyOp61
 70
     1
102
RTVSPropertyOp62
 70
     1
  0
XRECORD
  5
4E51
102
{ACAD_REACTORS
330
4E50
102
}
330
4E50
100
AcDbXrecord
280
     1
102
RTVSPost2010Prop28
280
     0
102
RTVSPost2010PropOp28
 70
     0
102
RTVSPost2010Prop29
280
     1
102
RTVSPost2010PropOp29
 70
     0
102
RTVSPost2010Prop30
280
     1
102
RTVSPost2010PropOp30
 70
     0
102
RTVSPost2010Prop31
280
     0
102
RTVSPost2010PropOp31
 70
     0
102
RTVSPost2010Prop32
280
     0
102
RTVSPost2010PropOp32
 70
     0
102
RTVSPost2010Prop33
280
     0
102
RTVSPost2010PropOp33
 70
     0
102
RTVSPost2010Prop34
280
     0
102
RTVSPost2010PropOp34
 70
     0
102
RTVSPost2010Prop35
280
     0
102
RTVSPost2010PropOp35
 70
     0
102
RTVSPost2010Prop36
280
     0
102
RTVSPost2010PropOp36
 70
     0
102
RTVSPost2010Prop37
 90
       50
102
RTVSPost2010PropOp37
 70
     0
102
RTVSPost2010Prop38
140
0.0
102
RTVSPost2010PropOp38
 70
     0
102
RTVSPost2010Prop39
140
1.0
102
RTVSPost2010PropOp39
 70
     0
102
RTVSPost2010Prop40
 90
        0
102
RTVSPost2010PropOp40
 70
     0
102
RTVSPost2010Prop41ColorIndex
 90
       18
102
RTVSPost2010Prop41ColorRGB
 90
        0
102
RTVSPost2010PropOp41
 70
     0
102
RTVSPost2010Prop42
 90
       50
102
RTVSPost2010PropOp42
 70
     0
102
RTVSPost2010Prop43
 90
        3
102
RTVSPost2010PropOp43
 70
     0
102
RTVSPost2010Prop44ColorIndex
 90
        5
102
RTVSPost2010Prop44ColorRGB
 90
      255
102
RTVSPost2010PropOp44
 70
     0
102
RTVSPost2010Prop45
280
     0
102
RTVSPost2010PropOp45
 70
     0
102
RTVSPost2010Prop46
 90
       50
102
RTVSPost2010PropOp46
 70
     0
102
RTVSPost2010Prop47
 90
       50
102
RTVSPost2010PropOp47
 70
     0
102
RTVSPost2010Prop48
 90
       50
102
RTVSPost2010PropOp48
 70
     0
102
RTVSPost2010Prop49
280
     0
102
RTVSPost2010PropOp49
 70
     0
102
RTVSPost2010Prop50
 90
       50
102
RTVSPost2010PropOp50
 70
     0
102
RTVSPost2010Prop51ColorIndex
 90
      256
102
RTVSPost2010Prop51ColorRGB
 90
-16777216
102
RTVSPost2010PropOp51
 70
     0
102
RTVSPost2010Prop52
140
1.0
102
RTVSPost2010PropOp52
 70
     0
102
RTVSPost2010Prop53
 90
        2
102
RTVSPost2010PropOp53
 70
     0
102
RTVSPost2010Prop54
  1
strokes_ogs.tif
102
RTVSPost2010PropOp54
 70
     0
102
RTVSPost2010Prop55
280
     0
102
RTVSPost2010PropOp55
 70
     0
102
RTVSPost2010Prop56
140
1.0
102
RTVSPost2010PropOp56
 70
     0
102
RTVSPost2010Prop57
140
1.0
102
RTVSPost2010PropOp57
 70
     0
102
RTVSPropertyOp0
 70
     0
102
RTVSPropertyOp1
 70
     0
102
RTVSPropertyOp2
 70
     0
102
RTVSPropertyOp3
 70
     0
102
RTVSPropertyOp4
 70
     0
102
RTVSPropertyOp5
 70
     0
102
RTVSPropertyOp6
 70
     0
102
RTVSPropertyOp7
 70
     0
102
RTVSPropertyOp8
 70
     0
102
RTVSPropertyOp9
 70
     0
102
RTVSPropertyOp10
 70
     0
102
RTVSPropertyOp11
 70
     0
102
RTVSPropertyOp12
 70
     0
102
RTVSPropertyOp13
 70
     0
102
RTVSPropertyOp14
 70
     2
102
RTVSPropertyOp15
 70
     0
102
RTVSPropertyOp16
 70
     0
102
RTVSPropertyOp17
 70
     0
102
RTVSPropertyOp18
 70
     0
102
RTVSPropertyOp19
 70
     0
102
RTVSPropertyOp20
 70
     0
102
RTVSPropertyOp21
 70
     0
102
RTVSPropertyOp22
 70
     0
102
RTVSPropertyOp23
 70
     0
102
RTVSPropertyOp24
 70
     0
102
RTVSPropertyOp25
 70
     0
102
RTVSPropertyOp26
 70
     0
102
RTVSPropertyOp27
 70
     0
102
RTVSPropertyOp28
 70
     0
102
RTVSPropertyOp29
 70
     0
102
RTVSPropertyOp30
 70
     0
102
RTVSPropertyOp31
 70
     0
102
RTVSPropertyOp32
 70
     0
102
RTVSPropertyOp33
 70
     0
102
RTVSPropertyOp34
 70
     0
102
RTVSPropertyOp35
 70
     0
102
RTVSPropertyOp36
 70
     0
102
RTVSPropertyOp37
 70
     0
102
RTVSPropertyOp38
 70
     0
102
RTVSPropertyOp39
 70
     0
102
RTVSPropertyOp40
 70
     0
102
RTVSPropertyOp41
 70
     0
102
RTVSPropertyOp42
 70
     0
102
RTVSPropertyOp43
 70
     0
102
RTVSPropertyOp44
 70
     0
102
RTVSPropertyOp45
 70
     0
102
RTVSPropertyOp46
 70
     0
102
RTVSPropertyOp47
 70
     0
102
RTVSPropertyOp48
 70
     0
102
RTVSPropertyOp49
 70
     0
102
RTVSPropertyOp50
 70
     0
102
RTVSPropertyOp51
 70
     0
102
RTVSPropertyOp52
 70
     0
102
RTVSPropertyOp53
 70
     0
102
RTVSPropertyOp54
 70
     0
102
RTVSPropertyOp55
 70
     0
102
RTVSPropertyOp56
 70
     0
102
RTVSPropertyOp57
 70
     0
102
RTVSPropertyOp58
 70
     0
102
RTVSPropertyOp59
 70
     0
102
RTVSPropertyOp60
 70
     0
102
RTVSPropertyOp61
 70
     0
102
RTVSPropertyOp62
 70
     0
  0
XRECORD
  5
4E37
102
{ACAD_REACTORS
330
4E36
102
}
330
4E36
100
AcDbXrecord
280
     1
102
RTVSPost2010Prop28
280
     0
102
RTVSPost2010PropOp28
 70
     1
102
RTVSPost2010Prop29
280
     1
102
RTVSPost2010PropOp29
 70
     1
102
RTVSPost2010Prop30
280
     1
102
RTVSPost2010PropOp30
 70
     1
102
RTVSPost2010Prop31
280
     0
102
RTVSPost2010PropOp31
 70
     1
102
RTVSPost2010Prop32
280
     0
102
RTVSPost2010PropOp32
 70
     1
102
RTVSPost2010Prop33
280
     0
102
RTVSPost2010PropOp33
 70
     1
102
RTVSPost2010Prop34
280
     0
102
RTVSPost2010PropOp34
 70
     1
102
RTVSPost2010Prop35
280
     0
102
RTVSPost2010PropOp35
 70
     1
102
RTVSPost2010Prop36
280
     0
102
RTVSPost2010PropOp36
 70
     1
102
RTVSPost2010Prop37
 90
       50
102
RTVSPost2010PropOp37
 70
     1
102
RTVSPost2010Prop38
140
0.0
102
RTVSPost2010PropOp38
 70
     1
102
RTVSPost2010Prop39
140
1.0
102
RTVSPost2010PropOp39
 70
     1
102
RTVSPost2010Prop40
 90
        0
102
RTVSPost2010PropOp40
 70
     1
102
RTVSPost2010Prop41ColorIndex
 90
       18
102
RTVSPost2010Prop41ColorRGB
 90
        0
102
RTVSPost2010PropOp41
 70
     1
102
RTVSPost2010Prop42
 90
       50
102
RTVSPost2010PropOp42
 70
     1
102
RTVSPost2010Prop43
 90
        3
102
RTVSPost2010PropOp43
 70
     1
102
RTVSPost2010Prop44ColorIndex
 90
        5
102
RTVSPost2010Prop44ColorRGB
 90
      255
102
RTVSPost2010PropOp44
 70
     1
102
RTVSPost2010Prop45
280
     0
102
RTVSPost2010PropOp45
 70
     1
102
RTVSPost2010Prop46
 90
       50
102
RTVSPost2010PropOp46
 70
     1
102
RTVSPost2010Prop47
 90
       50
102
RTVSPost2010PropOp47
 70
     1
102
RTVSPost2010Prop48
 90
       50
102
RTVSPost2010PropOp48
 70
     1
102
RTVSPost2010Prop49
280
     0
102
RTVSPost2010PropOp49
 70
     1
102
RTVSPost2010Prop50
 90
       50
102
RTVSPost2010PropOp50
 70
     1
102
RTVSPost2010Prop51ColorIndex
 90
      256
102
RTVSPost2010Prop51ColorRGB
 90
-16777216
102
RTVSPost2010PropOp51
 70
     0
102
RTVSPost2010Prop52
140
1.0
102
RTVSPost2010PropOp52
 70
     0
102
RTVSPost2010Prop53
 90
        2
102
RTVSPost2010PropOp53
 70
     1
102
RTVSPost2010Prop54
  1
strokes_ogs.tif
102
RTVSPost2010PropOp54
 70
     1
102
RTVSPost2010Prop55
280
     0
102
RTVSPost2010PropOp55
 70
     1
102
RTVSPost2010Prop56
140
1.0
102
RTVSPost2010PropOp56
 70
     1
102
RTVSPost2010Prop57
140
1.0
102
RTVSPost2010PropOp57
 70
     1
102
RTVSPropertyOp0
 70
     1
102
RTVSPropertyOp1
 70
     1
102
RTVSPropertyOp2
 70
     1
102
RTVSPropertyOp3
 70
     1
102
RTVSPropertyOp4
 70
     1
102
RTVSPropertyOp5
 70
     1
102
RTVSPropertyOp6
 70
     1
102
RTVSPropertyOp7
 70
     1
102
RTVSPropertyOp8
 70
     1
102
RTVSPropertyOp9
 70
     1
102
RTVSPropertyOp10
 70
     1
102
RTVSPropertyOp11
 70
     1
102
RTVSPropertyOp12
 70
     1
102
RTVSPropertyOp13
 70
     1
102
RTVSPropertyOp14
 70
     1
102
RTVSPropertyOp15
 70
     1
102
RTVSPropertyOp16
 70
     1
102
RTVSPropertyOp17
 70
     1
102
RTVSPropertyOp18
 70
     1
102
RTVSPropertyOp19
 70
     1
102
RTVSPropertyOp20
 70
     1
102
RTVSPropertyOp21
 70
     1
102
RTVSPropertyOp22
 70
     1
102
RTVSPropertyOp23
 70
     1
102
RTVSPropertyOp24
 70
     1
102
RTVSPropertyOp25
 70
     1
102
RTVSPropertyOp26
 70
     1
102
RTVSPropertyOp27
 70
     1
102
RTVSPropertyOp28
 70
     1
102
RTVSPropertyOp29
 70
     1
102
RTVSPropertyOp30
 70
     1
102
RTVSPropertyOp31
 70
     1
102
RTVSPropertyOp32
 70
     1
102
RTVSPropertyOp33
 70
     1
102
RTVSPropertyOp34
 70
     1
102
RTVSPropertyOp35
 70
     1
102
RTVSPropertyOp36
 70
     1
102
RTVSPropertyOp37
 70
     1
102
RTVSPropertyOp38
 70
     1
102
RTVSPropertyOp39
 70
     1
102
RTVSPropertyOp40
 70
     1
102
RTVSPropertyOp41
 70
     1
102
RTVSPropertyOp42
 70
     1
102
RTVSPropertyOp43
 70
     1
102
RTVSPropertyOp44
 70
     1
102
RTVSPropertyOp45
 70
     1
102
RTVSPropertyOp46
 70
     1
102
RTVSPropertyOp47
 70
     1
102
RTVSPropertyOp48
 70
     1
102
RTVSPropertyOp49
 70
     1
102
RTVSPropertyOp50
 70
     1
102
RTVSPropertyOp51
 70
     0
102
RTVSPropertyOp52
 70
     0
102
RTVSPropertyOp53
 70
     1
102
RTVSPropertyOp54
 70
     1
102
RTVSPropertyOp55
 70
     1
102
RTVSPropertyOp56
 70
     1
102
RTVSPropertyOp57
 70
     1
102
RTVSPropertyOp58
 70
     1
102
RTVSPropertyOp59
 70
     1
102
RTVSPropertyOp60
 70
     1
102
RTVSPropertyOp61
 70
     1
102
RTVSPropertyOp62
 70
     1
  0
XRECORD
  5
4E4D
102
{ACAD_REACTORS
330
4E4C
102
}
330
4E4C
100
AcDbXrecord
280
     1
102
RTVSPost2010Prop28
280
     0
102
RTVSPost2010PropOp28
 70
     1
102
RTVSPost2010Prop29
280
     1
102
RTVSPost2010PropOp29
 70
     1
102
RTVSPost2010Prop30
280
     1
102
RTVSPost2010PropOp30
 70
     1
102
RTVSPost2010Prop31
280
     0
102
RTVSPost2010PropOp31
 70
     1
102
RTVSPost2010Prop32
280
     0
102
RTVSPost2010PropOp32
 70
     1
102
RTVSPost2010Prop33
280
     0
102
RTVSPost2010PropOp33
 70
     1
102
RTVSPost2010Prop34
280
     0
102
RTVSPost2010PropOp34
 70
     1
102
RTVSPost2010Prop35
280
     0
102
RTVSPost2010PropOp35
 70
     1
102
RTVSPost2010Prop36
280
     0
102
RTVSPost2010PropOp36
 70
     1
102
RTVSPost2010Prop37
 90
       50
102
RTVSPost2010PropOp37
 70
     1
102
RTVSPost2010Prop38
140
0.0
102
RTVSPost2010PropOp38
 70
     1
102
RTVSPost2010Prop39
140
1.0
102
RTVSPost2010PropOp39
 70
     1
102
RTVSPost2010Prop40
 90
        0
102
RTVSPost2010PropOp40
 70
     1
102
RTVSPost2010Prop41ColorIndex
 90
       18
102
RTVSPost2010Prop41ColorRGB
 90
        0
102
RTVSPost2010PropOp41
 70
     1
102
RTVSPost2010Prop42
 90
       50
102
RTVSPost2010PropOp42
 70
     1
102
RTVSPost2010Prop43
 90
        3
102
RTVSPost2010PropOp43
 70
     1
102
RTVSPost2010Prop44ColorIndex
 90
        5
102
RTVSPost2010Prop44ColorRGB
 90
      255
102
RTVSPost2010PropOp44
 70
     1
102
RTVSPost2010Prop45
280
     0
102
RTVSPost2010PropOp45
 70
     1
102
RTVSPost2010Prop46
 90
       50
102
RTVSPost2010PropOp46
 70
     1
102
RTVSPost2010Prop47
 90
       50
102
RTVSPost2010PropOp47
 70
     1
102
RTVSPost2010Prop48
 90
       50
102
RTVSPost2010PropOp48
 70
     1
102
RTVSPost2010Prop49
280
     0
102
RTVSPost2010PropOp49
 70
     1
102
RTVSPost2010Prop50
 90
       50
102
RTVSPost2010PropOp50
 70
     1
102
RTVSPost2010Prop51ColorIndex
 90
      256
102
RTVSPost2010Prop51ColorRGB
 90
-16777216
102
RTVSPost2010PropOp51
 70
     0
102
RTVSPost2010Prop52
140
1.0
102
RTVSPost2010PropOp52
 70
     0
102
RTVSPost2010Prop53
 90
        2
102
RTVSPost2010PropOp53
 70
     1
102
RTVSPost2010Prop54
  1
strokes_ogs.tif
102
RTVSPost2010PropOp54
 70
     1
102
RTVSPost2010Prop55
280
     0
102
RTVSPost2010PropOp55
 70
     1
102
RTVSPost2010Prop56
140
1.0
102
RTVSPost2010PropOp56
 70
     1
102
RTVSPost2010Prop57
140
1.0
102
RTVSPost2010PropOp57
 70
     1
102
RTVSPropertyOp0
 70
     1
102
RTVSPropertyOp1
 70
     1
102
RTVSPropertyOp2
 70
     1
102
RTVSPropertyOp3
 70
     1
102
RTVSPropertyOp4
 70
     1
102
RTVSPropertyOp5
 70
     1
102
RTVSPropertyOp6
 70
     1
102
RTVSPropertyOp7
 70
     1
102
RTVSPropertyOp8
 70
     1
102
RTVSPropertyOp9
 70
     1
102
RTVSPropertyOp10
 70
     1
102
RTVSPropertyOp11
 70
     1
102
RTVSPropertyOp12
 70
     1
102
RTVSPropertyOp13
 70
     1
102
RTVSPropertyOp14
 70
     1
102
RTVSPropertyOp15
 70
     1
102
RTVSPropertyOp16
 70
     1
102
RTVSPropertyOp17
 70
     1
102
RTVSPropertyOp18
 70
     1
102
RTVSPropertyOp19
 70
     1
102
RTVSPropertyOp20
 70
     1
102
RTVSPropertyOp21
 70
     1
102
RTVSPropertyOp22
 70
     1
102
RTVSPropertyOp23
 70
     1
102
RTVSPropertyOp24
 70
     1
102
RTVSPropertyOp25
 70
     1
102
RTVSPropertyOp26
 70
     1
102
RTVSPropertyOp27
 70
     1
102
RTVSPropertyOp28
 70
     1
102
RTVSPropertyOp29
 70
     1
102
RTVSPropertyOp30
 70
     1
102
RTVSPropertyOp31
 70
     1
102
RTVSPropertyOp32
 70
     1
102
RTVSPropertyOp33
 70
     1
102
RTVSPropertyOp34
 70
     1
102
RTVSPropertyOp35
 70
     1
102
RTVSPropertyOp36
 70
     1
102
RTVSPropertyOp37
 70
     1
102
RTVSPropertyOp38
 70
     1
102
RTVSPropertyOp39
 70
     1
102
RTVSPropertyOp40
 70
     1
102
RTVSPropertyOp41
 70
     1
102
RTVSPropertyOp42
 70
     1
102
RTVSPropertyOp43
 70
     1
102
RTVSPropertyOp44
 70
     1
102
RTVSPropertyOp45
 70
     1
102
RTVSPropertyOp46
 70
     1
102
RTVSPropertyOp47
 70
     1
102
RTVSPropertyOp48
 70
     1
102
RTVSPropertyOp49
 70
     1
102
RTVSPropertyOp50
 70
     1
102
RTVSPropertyOp51
 70
     0
102
RTVSPropertyOp52
 70
     0
102
RTVSPropertyOp53
 70
     1
102
RTVSPropertyOp54
 70
     1
102
RTVSPropertyOp55
 70
     1
102
RTVSPropertyOp56
 70
     1
102
RTVSPropertyOp57
 70
     1
102
RTVSPropertyOp58
 70
     1
102
RTVSPropertyOp59
 70
     1
102
RTVSPropertyOp60
 70
     1
102
RTVSPropertyOp61
 70
     1
102
RTVSPropertyOp62
 70
     1
  0
XRECORD
  5
4E4B
102
{ACAD_REACTORS
330
4E4A
102
}
330
4E4A
100
AcDbXrecord
280
     1
102
RTVSPost2010Prop28
280
     0
102
RTVSPost2010PropOp28
 70
     1
102
RTVSPost2010Prop29
280
     1
102
RTVSPost2010PropOp29
 70
     1
102
RTVSPost2010Prop30
280
     1
102
RTVSPost2010PropOp30
 70
     1
102
RTVSPost2010Prop31
280
     0
102
RTVSPost2010PropOp31
 70
     1
102
RTVSPost2010Prop32
280
     0
102
RTVSPost2010PropOp32
 70
     1
102
RTVSPost2010Prop33
280
     0
102
RTVSPost2010PropOp33
 70
     1
102
RTVSPost2010Prop34
280
     0
102
RTVSPost2010PropOp34
 70
     1
102
RTVSPost2010Prop35
280
     0
102
RTVSPost2010PropOp35
 70
     1
102
RTVSPost2010Prop36
280
     0
102
RTVSPost2010PropOp36
 70
     1
102
RTVSPost2010Prop37
 90
       50
102
RTVSPost2010PropOp37
 70
     1
102
RTVSPost2010Prop38
140
0.0
102
RTVSPost2010PropOp38
 70
     1
102
RTVSPost2010Prop39
140
1.0
102
RTVSPost2010PropOp39
 70
     1
102
RTVSPost2010Prop40
 90
        0
102
RTVSPost2010PropOp40
 70
     1
102
RTVSPost2010Prop41ColorIndex
 90
       18
102
RTVSPost2010Prop41ColorRGB
 90
        0
102
RTVSPost2010PropOp41
 70
     1
102
RTVSPost2010Prop42
 90
       50
102
RTVSPost2010PropOp42
 70
     1
102
RTVSPost2010Prop43
 90
        3
102
RTVSPost2010PropOp43
 70
     1
102
RTVSPost2010Prop44ColorIndex
 90
        5
102
RTVSPost2010Prop44ColorRGB
 90
      255
102
RTVSPost2010PropOp44
 70
     1
102
RTVSPost2010Prop45
280
     0
102
RTVSPost2010PropOp45
 70
     1
102
RTVSPost2010Prop46
 90
       50
102
RTVSPost2010PropOp46
 70
     1
102
RTVSPost2010Prop47
 90
       50
102
RTVSPost2010PropOp47
 70
     1
102
RTVSPost2010Prop48
 90
       50
102
RTVSPost2010PropOp48
 70
     1
102
RTVSPost2010Prop49
280
     0
102
RTVSPost2010PropOp49
 70
     1
102
RTVSPost2010Prop50
 90
       50
102
RTVSPost2010PropOp50
 70
     1
102
RTVSPost2010Prop51ColorIndex
 90
      256
102
RTVSPost2010Prop51ColorRGB
 90
-16777216
102
RTVSPost2010PropOp51
 70
     0
102
RTVSPost2010Prop52
140
1.0
102
RTVSPost2010PropOp52
 70
     0
102
RTVSPost2010Prop53
 90
        2
102
RTVSPost2010PropOp53
 70
     1
102
RTVSPost2010Prop54
  1
strokes_ogs.tif
102
RTVSPost2010PropOp54
 70
     1
102
RTVSPost2010Prop55
280
     0
102
RTVSPost2010PropOp55
 70
     1
102
RTVSPost2010Prop56
140
1.0
102
RTVSPost2010PropOp56
 70
     1
102
RTVSPost2010Prop57
140
1.0
102
RTVSPost2010PropOp57
 70
     1
102
RTVSPropertyOp0
 70
     1
102
RTVSPropertyOp1
 70
     1
102
RTVSPropertyOp2
 70
     1
102
RTVSPropertyOp3
 70
     1
102
RTVSPropertyOp4
 70
     1
102
RTVSPropertyOp5
 70
     1
102
RTVSPropertyOp6
 70
     1
102
RTVSPropertyOp7
 70
     1
102
RTVSPropertyOp8
 70
     1
102
RTVSPropertyOp9
 70
     1
102
RTVSPropertyOp10
 70
     1
102
RTVSPropertyOp11
 70
     1
102
RTVSPropertyOp12
 70
     1
102
RTVSPropertyOp13
 70
     1
102
RTVSPropertyOp14
 70
     1
102
RTVSPropertyOp15
 70
     1
102
RTVSPropertyOp16
 70
     1
102
RTVSPropertyOp17
 70
     1
102
RTVSPropertyOp18
 70
     1
102
RTVSPropertyOp19
 70
     1
102
RTVSPropertyOp20
 70
     1
102
RTVSPropertyOp21
 70
     1
102
RTVSPropertyOp22
 70
     1
102
RTVSPropertyOp23
 70
     1
102
RTVSPropertyOp24
 70
     1
102
RTVSPropertyOp25
 70
     1
102
RTVSPropertyOp26
 70
     1
102
RTVSPropertyOp27
 70
     1
102
RTVSPropertyOp28
 70
     1
102
RTVSPropertyOp29
 70
     1
102
RTVSPropertyOp30
 70
     1
102
RTVSPropertyOp31
 70
     1
102
RTVSPropertyOp32
 70
     1
102
RTVSPropertyOp33
 70
     1
102
RTVSPropertyOp34
 70
     1
102
RTVSPropertyOp35
 70
     1
102
RTVSPropertyOp36
 70
     1
102
RTVSPropertyOp37
 70
     1
102
RTVSPropertyOp38
 70
     1
102
RTVSPropertyOp39
 70
     1
102
RTVSPropertyOp40
 70
     1
102
RTVSPropertyOp41
 70
     1
102
RTVSPropertyOp42
 70
     1
102
RTVSPropertyOp43
 70
     1
102
RTVSPropertyOp44
 70
     1
102
RTVSPropertyOp45
 70
     1
102
RTVSPropertyOp46
 70
     1
102
RTVSPropertyOp47
 70
     1
102
RTVSPropertyOp48
 70
     1
102
RTVSPropertyOp49
 70
     1
102
RTVSPropertyOp50
 70
     1
102
RTVSPropertyOp51
 70
     0
102
RTVSPropertyOp52
 70
     0
102
RTVSPropertyOp53
 70
     1
102
RTVSPropertyOp54
 70
     1
102
RTVSPropertyOp55
 70
     1
102
RTVSPropertyOp56
 70
     1
102
RTVSPropertyOp57
 70
     1
102
RTVSPropertyOp58
 70
     1
102
RTVSPropertyOp59
 70
     1
102
RTVSPropertyOp60
 70
     1
102
RTVSPropertyOp61
 70
     1
102
RTVSPropertyOp62
 70
     1
  0
XRECORD
  5
4E45
102
{ACAD_REACTORS
330
4E44
102
}
330
4E44
100
AcDbXrecord
280
     1
102
RTVSPost2010Prop28
280
     0
102
RTVSPost2010PropOp28
 70
     1
102
RTVSPost2010Prop29
280
     1
102
RTVSPost2010PropOp29
 70
     1
102
RTVSPost2010Prop30
280
     1
102
RTVSPost2010PropOp30
 70
     1
102
RTVSPost2010Prop31
280
     0
102
RTVSPost2010PropOp31
 70
     1
102
RTVSPost2010Prop32
280
     0
102
RTVSPost2010PropOp32
 70
     1
102
RTVSPost2010Prop33
280
     0
102
RTVSPost2010PropOp33
 70
     1
102
RTVSPost2010Prop34
280
     0
102
RTVSPost2010PropOp34
 70
     1
102
RTVSPost2010Prop35
280
     0
102
RTVSPost2010PropOp35
 70
     1
102
RTVSPost2010Prop36
280
     0
102
RTVSPost2010PropOp36
 70
     1
102
RTVSPost2010Prop37
 90
       50
102
RTVSPost2010PropOp37
 70
     1
102
RTVSPost2010Prop38
140
0.0
102
RTVSPost2010PropOp38
 70
     1
102
RTVSPost2010Prop39
140
1.0
102
RTVSPost2010PropOp39
 70
     1
102
RTVSPost2010Prop40
 90
        0
102
RTVSPost2010PropOp40
 70
     1
102
RTVSPost2010Prop41ColorIndex
 90
       18
102
RTVSPost2010Prop41ColorRGB
 90
        0
102
RTVSPost2010PropOp41
 70
     1
102
RTVSPost2010Prop42
 90
       50
102
RTVSPost2010PropOp42
 70
     1
102
RTVSPost2010Prop43
 90
        3
102
RTVSPost2010PropOp43
 70
     1
102
RTVSPost2010Prop44ColorIndex
 90
        5
102
RTVSPost2010Prop44ColorRGB
 90
      255
102
RTVSPost2010PropOp44
 70
     1
102
RTVSPost2010Prop45
280
     0
102
RTVSPost2010PropOp45
 70
     1
102
RTVSPost2010Prop46
 90
       50
102
RTVSPost2010PropOp46
 70
     1
102
RTVSPost2010Prop47
 90
       50
102
RTVSPost2010PropOp47
 70
     1
102
RTVSPost2010Prop48
 90
       50
102
RTVSPost2010PropOp48
 70
     1
102
RTVSPost2010Prop49
280
     0
102
RTVSPost2010PropOp49
 70
     1
102
RTVSPost2010Prop50
 90
       50
102
RTVSPost2010PropOp50
 70
     1
102
RTVSPost2010Prop51ColorIndex
 90
      256
102
RTVSPost2010Prop51ColorRGB
 90
-16777216
102
RTVSPost2010PropOp51
 70
     0
102
RTVSPost2010Prop52
140
1.0
102
RTVSPost2010PropOp52
 70
     0
102
RTVSPost2010Prop53
 90
        2
102
RTVSPost2010PropOp53
 70
     1
102
RTVSPost2010Prop54
  1
strokes_ogs.tif
102
RTVSPost2010PropOp54
 70
     1
102
RTVSPost2010Prop55
280
     0
102
RTVSPost2010PropOp55
 70
     1
102
RTVSPost2010Prop56
140
1.0
102
RTVSPost2010PropOp56
 70
     1
102
RTVSPost2010Prop57
140
1.0
102
RTVSPost2010PropOp57
 70
     1
102
RTVSPropertyOp0
 70
     1
102
RTVSPropertyOp1
 70
     1
102
RTVSPropertyOp2
 70
     1
102
RTVSPropertyOp3
 70
     1
102
RTVSPropertyOp4
 70
     1
102
RTVSPropertyOp5
 70
     1
102
RTVSPropertyOp6
 70
     1
102
RTVSPropertyOp7
 70
     1
102
RTVSPropertyOp8
 70
     1
102
RTVSPropertyOp9
 70
     1
102
RTVSPropertyOp10
 70
     1
102
RTVSPropertyOp11
 70
     1
102
RTVSPropertyOp12
 70
     1
102
RTVSPropertyOp13
 70
     1
102
RTVSPropertyOp14
 70
     1
102
RTVSPropertyOp15
 70
     1
102
RTVSPropertyOp16
 70
     1
102
RTVSPropertyOp17
 70
     1
102
RTVSPropertyOp18
 70
     1
102
RTVSPropertyOp19
 70
     1
102
RTVSPropertyOp20
 70
     1
102
RTVSPropertyOp21
 70
     1
102
RTVSPropertyOp22
 70
     1
102
RTVSPropertyOp23
 70
     1
102
RTVSPropertyOp24
 70
     1
102
RTVSPropertyOp25
 70
     1
102
RTVSPropertyOp26
 70
     1
102
RTVSPropertyOp27
 70
     1
102
RTVSPropertyOp28
 70
     1
102
RTVSPropertyOp29
 70
     1
102
RTVSPropertyOp30
 70
     1
102
RTVSPropertyOp31
 70
     1
102
RTVSPropertyOp32
 70
     1
102
RTVSPropertyOp33
 70
     1
102
RTVSPropertyOp34
 70
     1
102
RTVSPropertyOp35
 70
     1
102
RTVSPropertyOp36
 70
     1
102
RTVSPropertyOp37
 70
     1
102
RTVSPropertyOp38
 70
     1
102
RTVSPropertyOp39
 70
     1
102
RTVSPropertyOp40
 70
     1
102
RTVSPropertyOp41
 70
     1
102
RTVSPropertyOp42
 70
     1
102
RTVSPropertyOp43
 70
     1
102
RTVSPropertyOp44
 70
     1
102
RTVSPropertyOp45
 70
     1
102
RTVSPropertyOp46
 70
     1
102
RTVSPropertyOp47
 70
     1
102
RTVSPropertyOp48
 70
     1
102
RTVSPropertyOp49
 70
     1
102
RTVSPropertyOp50
 70
     1
102
RTVSPropertyOp51
 70
     0
102
RTVSPropertyOp52
 70
     0
102
RTVSPropertyOp53
 70
     1
102
RTVSPropertyOp54
 70
     1
102
RTVSPropertyOp55
 70
     1
102
RTVSPropertyOp56
 70
     1
102
RTVSPropertyOp57
 70
     1
102
RTVSPropertyOp58
 70
     1
102
RTVSPropertyOp59
 70
     1
102
RTVSPropertyOp60
 70
     1
102
RTVSPropertyOp61
 70
     1
102
RTVSPropertyOp62
 70
     1
  0
XRECORD
  5
4E47
102
{ACAD_REACTORS
330
4E46
102
}
330
4E46
100
AcDbXrecord
280
     1
102
RTVSPost2010Prop28
280
     0
102
RTVSPost2010PropOp28
 70
     1
102
RTVSPost2010Prop29
280
     1
102
RTVSPost2010PropOp29
 70
     1
102
RTVSPost2010Prop30
280
     1
102
RTVSPost2010PropOp30
 70
     1
102
RTVSPost2010Prop31
280
     0
102
RTVSPost2010PropOp31
 70
     1
102
RTVSPost2010Prop32
280
     0
102
RTVSPost2010PropOp32
 70
     1
102
RTVSPost2010Prop33
280
     0
102
RTVSPost2010PropOp33
 70
     1
102
RTVSPost2010Prop34
280
     0
102
RTVSPost2010PropOp34
 70
     1
102
RTVSPost2010Prop35
280
     0
102
RTVSPost2010PropOp35
 70
     1
102
RTVSPost2010Prop36
280
     0
102
RTVSPost2010PropOp36
 70
     1
102
RTVSPost2010Prop37
 90
       50
102
RTVSPost2010PropOp37
 70
     1
102
RTVSPost2010Prop38
140
0.0
102
RTVSPost2010PropOp38
 70
     1
102
RTVSPost2010Prop39
140
1.0
102
RTVSPost2010PropOp39
 70
     1
102
RTVSPost2010Prop40
 90
        0
102
RTVSPost2010PropOp40
 70
     1
102
RTVSPost2010Prop41ColorIndex
 90
       18
102
RTVSPost2010Prop41ColorRGB
 90
        0
102
RTVSPost2010PropOp41
 70
     1
102
RTVSPost2010Prop42
 90
       50
102
RTVSPost2010PropOp42
 70
     1
102
RTVSPost2010Prop43
 90
        3
102
RTVSPost2010PropOp43
 70
     1
102
RTVSPost2010Prop44ColorIndex
 90
        5
102
RTVSPost2010Prop44ColorRGB
 90
      255
102
RTVSPost2010PropOp44
 70
     1
102
RTVSPost2010Prop45
280
     0
102
RTVSPost2010PropOp45
 70
     1
102
RTVSPost2010Prop46
 90
       50
102
RTVSPost2010PropOp46
 70
     1
102
RTVSPost2010Prop47
 90
       50
102
RTVSPost2010PropOp47
 70
     1
102
RTVSPost2010Prop48
 90
       50
102
RTVSPost2010PropOp48
 70
     1
102
RTVSPost2010Prop49
280
     0
102
RTVSPost2010PropOp49
 70
     1
102
RTVSPost2010Prop50
 90
       50
102
RTVSPost2010PropOp50
 70
     1
102
RTVSPost2010Prop51ColorIndex
 90
      256
102
RTVSPost2010Prop51ColorRGB
 90
-16777216
102
RTVSPost2010PropOp51
 70
     0
102
RTVSPost2010Prop52
140
1.0
102
RTVSPost2010PropOp52
 70
     0
102
RTVSPost2010Prop53
 90
        2
102
RTVSPost2010PropOp53
 70
     1
102
RTVSPost2010Prop54
  1
strokes_ogs.tif
102
RTVSPost2010PropOp54
 70
     1
102
RTVSPost2010Prop55
280
     0
102
RTVSPost2010PropOp55
 70
     1
102
RTVSPost2010Prop56
140
1.0
102
RTVSPost2010PropOp56
 70
     1
102
RTVSPost2010Prop57
140
1.0
102
RTVSPost2010PropOp57
 70
     1
102
RTVSPropertyOp0
 70
     1
102
RTVSPropertyOp1
 70
     1
102
RTVSPropertyOp2
 70
     1
102
RTVSPropertyOp3
 70
     1
102
RTVSPropertyOp4
 70
     1
102
RTVSPropertyOp5
 70
     1
102
RTVSPropertyOp6
 70
     1
102
RTVSPropertyOp7
 70
     1
102
RTVSPropertyOp8
 70
     1
102
RTVSPropertyOp9
 70
     1
102
RTVSPropertyOp10
 70
     1
102
RTVSPropertyOp11
 70
     1
102
RTVSPropertyOp12
 70
     1
102
RTVSPropertyOp13
 70
     1
102
RTVSPropertyOp14
 70
     1
102
RTVSPropertyOp15
 70
     1
102
RTVSPropertyOp16
 70
     1
102
RTVSPropertyOp17
 70
     1
102
RTVSPropertyOp18
 70
     1
102
RTVSPropertyOp19
 70
     1
102
RTVSPropertyOp20
 70
     1
102
RTVSPropertyOp21
 70
     1
102
RTVSPropertyOp22
 70
     1
102
RTVSPropertyOp23
 70
     1
102
RTVSPropertyOp24
 70
     1
102
RTVSPropertyOp25
 70
     1
102
RTVSPropertyOp26
 70
     1
102
RTVSPropertyOp27
 70
     1
102
RTVSPropertyOp28
 70
     1
102
RTVSPropertyOp29
 70
     1
102
RTVSPropertyOp30
 70
     1
102
RTVSPropertyOp31
 70
     1
102
RTVSPropertyOp32
 70
     1
102
RTVSPropertyOp33
 70
     1
102
RTVSPropertyOp34
 70
     1
102
RTVSPropertyOp35
 70
     1
102
RTVSPropertyOp36
 70
     1
102
RTVSPropertyOp37
 70
     1
102
RTVSPropertyOp38
 70
     1
102
RTVSPropertyOp39
 70
     1
102
RTVSPropertyOp40
 70
     1
102
RTVSPropertyOp41
 70
     1
102
RTVSPropertyOp42
 70
     1
102
RTVSPropertyOp43
 70
     1
102
RTVSPropertyOp44
 70
     1
102
RTVSPropertyOp45
 70
     1
102
RTVSPropertyOp46
 70
     1
102
RTVSPropertyOp47
 70
     1
102
RTVSPropertyOp48
 70
     1
102
RTVSPropertyOp49
 70
     1
102
RTVSPropertyOp50
 70
     1
102
RTVSPropertyOp51
 70
     0
102
RTVSPropertyOp52
 70
     0
102
RTVSPropertyOp53
 70
     1
102
RTVSPropertyOp54
 70
     1
102
RTVSPropertyOp55
 70
     1
102
RTVSPropertyOp56
 70
     1
102
RTVSPropertyOp57
 70
     1
102
RTVSPropertyOp58
 70
     1
102
RTVSPropertyOp59
 70
     1
102
RTVSPropertyOp60
 70
     1
102
RTVSPropertyOp61
 70
     1
102
RTVSPropertyOp62
 70
     1
  0
XRECORD
  5
4E3D
102
{ACAD_REACTORS
330
4E3C
102
}
330
4E3C
100
AcDbXrecord
280
     1
102
RTVSPost2010Prop28
280
     0
102
RTVSPost2010PropOp28
 70
     1
102
RTVSPost2010Prop29
280
     1
102
RTVSPost2010PropOp29
 70
     1
102
RTVSPost2010Prop30
280
     1
102
RTVSPost2010PropOp30
 70
     1
102
RTVSPost2010Prop31
280
     0
102
RTVSPost2010PropOp31
 70
     1
102
RTVSPost2010Prop32
280
     0
102
RTVSPost2010PropOp32
 70
     1
102
RTVSPost2010Prop33
280
     0
102
RTVSPost2010PropOp33
 70
     1
102
RTVSPost2010Prop34
280
     0
102
RTVSPost2010PropOp34
 70
     1
102
RTVSPost2010Prop35
280
     0
102
RTVSPost2010PropOp35
 70
     1
102
RTVSPost2010Prop36
280
     0
102
RTVSPost2010PropOp36
 70
     1
102
RTVSPost2010Prop37
 90
       50
102
RTVSPost2010PropOp37
 70
     1
102
RTVSPost2010Prop38
140
0.0
102
RTVSPost2010PropOp38
 70
     1
102
RTVSPost2010Prop39
140
1.0
102
RTVSPost2010PropOp39
 70
     1
102
RTVSPost2010Prop40
 90
        0
102
RTVSPost2010PropOp40
 70
     1
102
RTVSPost2010Prop41ColorIndex
 90
       18
102
RTVSPost2010Prop41ColorRGB
 90
        0
102
RTVSPost2010PropOp41
 70
     1
102
RTVSPost2010Prop42
 90
       50
102
RTVSPost2010PropOp42
 70
     1
102
RTVSPost2010Prop43
 90
        3
102
RTVSPost2010PropOp43
 70
     1
102
RTVSPost2010Prop44ColorIndex
 90
        5
102
RTVSPost2010Prop44ColorRGB
 90
      255
102
RTVSPost2010PropOp44
 70
     1
102
RTVSPost2010Prop45
280
     0
102
RTVSPost2010PropOp45
 70
     1
102
RTVSPost2010Prop46
 90
       50
102
RTVSPost2010PropOp46
 70
     1
102
RTVSPost2010Prop47
 90
       50
102
RTVSPost2010PropOp47
 70
     1
102
RTVSPost2010Prop48
 90
       50
102
RTVSPost2010PropOp48
 70
     1
102
RTVSPost2010Prop49
280
     0
102
RTVSPost2010PropOp49
 70
     1
102
RTVSPost2010Prop50
 90
       50
102
RTVSPost2010PropOp50
 70
     1
102
RTVSPost2010Prop51ColorIndex
 90
      256
102
RTVSPost2010Prop51ColorRGB
 90
-16777216
102
RTVSPost2010PropOp51
 70
     0
102
RTVSPost2010Prop52
140
1.0
102
RTVSPost2010PropOp52
 70
     0
102
RTVSPost2010Prop53
 90
        2
102
RTVSPost2010PropOp53
 70
     1
102
RTVSPost2010Prop54
  1
strokes_ogs.tif
102
RTVSPost2010PropOp54
 70
     1
102
RTVSPost2010Prop55
280
     0
102
RTVSPost2010PropOp55
 70
     1
102
RTVSPost2010Prop56
140
1.0
102
RTVSPost2010PropOp56
 70
     1
102
RTVSPost2010Prop57
140
1.0
102
RTVSPost2010PropOp57
 70
     1
102
RTVSPropertyOp0
 70
     1
102
RTVSPropertyOp1
 70
     1
102
RTVSPropertyOp2
 70
     1
102
RTVSPropertyOp3
 70
     1
102
RTVSPropertyOp4
 70
     1
102
RTVSPropertyOp5
 70
     1
102
RTVSPropertyOp6
 70
     1
102
RTVSPropertyOp7
 70
     1
102
RTVSPropertyOp8
 70
     1
102
RTVSPropertyOp9
 70
     1
102
RTVSPropertyOp10
 70
     1
102
RTVSPropertyOp11
 70
     1
102
RTVSPropertyOp12
 70
     1
102
RTVSPropertyOp13
 70
     1
102
RTVSPropertyOp14
 70
     1
102
RTVSPropertyOp15
 70
     1
102
RTVSPropertyOp16
 70
     1
102
RTVSPropertyOp17
 70
     1
102
RTVSPropertyOp18
 70
     1
102
RTVSPropertyOp19
 70
     1
102
RTVSPropertyOp20
 70
     1
102
RTVSPropertyOp21
 70
     1
102
RTVSPropertyOp22
 70
     1
102
RTVSPropertyOp23
 70
     1
102
RTVSPropertyOp24
 70
     1
102
RTVSPropertyOp25
 70
     1
102
RTVSPropertyOp26
 70
     1
102
RTVSPropertyOp27
 70
     1
102
RTVSPropertyOp28
 70
     1
102
RTVSPropertyOp29
 70
     1
102
RTVSPropertyOp30
 70
     1
102
RTVSPropertyOp31
 70
     1
102
RTVSPropertyOp32
 70
     1
102
RTVSPropertyOp33
 70
     1
102
RTVSPropertyOp34
 70
     1
102
RTVSPropertyOp35
 70
     1
102
RTVSPropertyOp36
 70
     1
102
RTVSPropertyOp37
 70
     1
102
RTVSPropertyOp38
 70
     1
102
RTVSPropertyOp39
 70
     1
102
RTVSPropertyOp40
 70
     1
102
RTVSPropertyOp41
 70
     1
102
RTVSPropertyOp42
 70
     1
102
RTVSPropertyOp43
 70
     1
102
RTVSPropertyOp44
 70
     1
102
RTVSPropertyOp45
 70
     1
102
RTVSPropertyOp46
 70
     1
102
RTVSPropertyOp47
 70
     1
102
RTVSPropertyOp48
 70
     1
102
RTVSPropertyOp49
 70
     1
102
RTVSPropertyOp50
 70
     1
102
RTVSPropertyOp51
 70
     0
102
RTVSPropertyOp52
 70
     0
102
RTVSPropertyOp53
 70
     1
102
RTVSPropertyOp54
 70
     1
102
RTVSPropertyOp55
 70
     1
102
RTVSPropertyOp56
 70
     1
102
RTVSPropertyOp57
 70
     1
102
RTVSPropertyOp58
 70
     1
102
RTVSPropertyOp59
 70
     1
102
RTVSPropertyOp60
 70
     1
102
RTVSPropertyOp61
 70
     1
102
RTVSPropertyOp62
 70
     1
  0
XRECORD
  5
4E31
102
{ACAD_REACTORS
330
4E30
102
}
330
4E30
100
AcDbXrecord
280
     1
102
RTVSPost2010Prop28
280
     0
102
RTVSPost2010PropOp28
 70
     1
102
RTVSPost2010Prop29
280
     1
102
RTVSPost2010PropOp29
 70
     1
102
RTVSPost2010Prop30
280
     1
102
RTVSPost2010PropOp30
 70
     1
102
RTVSPost2010Prop31
280
     0
102
RTVSPost2010PropOp31
 70
     1
102
RTVSPost2010Prop32
280
     0
102
RTVSPost2010PropOp32
 70
     1
102
RTVSPost2010Prop33
280
     0
102
RTVSPost2010PropOp33
 70
     1
102
RTVSPost2010Prop34
280
     0
102
RTVSPost2010PropOp34
 70
     1
102
RTVSPost2010Prop35
280
     0
102
RTVSPost2010PropOp35
 70
     1
102
RTVSPost2010Prop36
280
     0
102
RTVSPost2010PropOp36
 70
     1
102
RTVSPost2010Prop37
 90
       50
102
RTVSPost2010PropOp37
 70
     1
102
RTVSPost2010Prop38
140
0.0
102
RTVSPost2010PropOp38
 70
     1
102
RTVSPost2010Prop39
140
1.0
102
RTVSPost2010PropOp39
 70
     1
102
RTVSPost2010Prop40
 90
        0
102
RTVSPost2010PropOp40
 70
     1
102
RTVSPost2010Prop41ColorIndex
 90
       18
102
RTVSPost2010Prop41ColorRGB
 90
        0
102
RTVSPost2010PropOp41
 70
     1
102
RTVSPost2010Prop42
 90
       50
102
RTVSPost2010PropOp42
 70
     1
102
RTVSPost2010Prop43
 90
        3
102
RTVSPost2010PropOp43
 70
     1
102
RTVSPost2010Prop44ColorIndex
 90
        5
102
RTVSPost2010Prop44ColorRGB
 90
      255
102
RTVSPost2010PropOp44
 70
     1
102
RTVSPost2010Prop45
280
     0
102
RTVSPost2010PropOp45
 70
     1
102
RTVSPost2010Prop46
 90
       50
102
RTVSPost2010PropOp46
 70
     1
102
RTVSPost2010Prop47
 90
       50
102
RTVSPost2010PropOp47
 70
     1
102
RTVSPost2010Prop48
 90
       50
102
RTVSPost2010PropOp48
 70
     1
102
RTVSPost2010Prop49
280
     0
102
RTVSPost2010PropOp49
 70
     1
102
RTVSPost2010Prop50
 90
       50
102
RTVSPost2010PropOp50
 70
     1
102
RTVSPost2010Prop51ColorIndex
 90
      256
102
RTVSPost2010Prop51ColorRGB
 90
-16777216
102
RTVSPost2010PropOp51
 70
     0
102
RTVSPost2010Prop52
140
1.0
102
RTVSPost2010PropOp52
 70
     0
102
RTVSPost2010Prop53
 90
        2
102
RTVSPost2010PropOp53
 70
     1
102
RTVSPost2010Prop54
  1
strokes_ogs.tif
102
RTVSPost2010PropOp54
 70
     1
102
RTVSPost2010Prop55
280
     0
102
RTVSPost2010PropOp55
 70
     1
102
RTVSPost2010Prop56
140
1.0
102
RTVSPost2010PropOp56
 70
     1
102
RTVSPost2010Prop57
140
1.0
102
RTVSPost2010PropOp57
 70
     1
102
RTVSPropertyOp0
 70
     1
102
RTVSPropertyOp1
 70
     1
102
RTVSPropertyOp2
 70
     1
102
RTVSPropertyOp3
 70
     1
102
RTVSPropertyOp4
 70
     1
102
RTVSPropertyOp5
 70
     1
102
RTVSPropertyOp6
 70
     1
102
RTVSPropertyOp7
 70
     1
102
RTVSPropertyOp8
 70
     1
102
RTVSPropertyOp9
 70
     1
102
RTVSPropertyOp10
 70
     1
102
RTVSPropertyOp11
 70
     1
102
RTVSPropertyOp12
 70
     1
102
RTVSPropertyOp13
 70
     1
102
RTVSPropertyOp14
 70
     1
102
RTVSPropertyOp15
 70
     1
102
RTVSPropertyOp16
 70
     1
102
RTVSPropertyOp17
 70
     1
102
RTVSPropertyOp18
 70
     1
102
RTVSPropertyOp19
 70
     1
102
RTVSPropertyOp20
 70
     1
102
RTVSPropertyOp21
 70
     1
102
RTVSPropertyOp22
 70
     1
102
RTVSPropertyOp23
 70
     1
102
RTVSPropertyOp24
 70
     1
102
RTVSPropertyOp25
 70
     1
102
RTVSPropertyOp26
 70
     1
102
RTVSPropertyOp27
 70
     1
102
RTVSPropertyOp28
 70
     1
102
RTVSPropertyOp29
 70
     1
102
RTVSPropertyOp30
 70
     1
102
RTVSPropertyOp31
 70
     1
102
RTVSPropertyOp32
 70
     1
102
RTVSPropertyOp33
 70
     1
102
RTVSPropertyOp34
 70
     1
102
RTVSPropertyOp35
 70
     1
102
RTVSPropertyOp36
 70
     1
102
RTVSPropertyOp37
 70
     1
102
RTVSPropertyOp38
 70
     1
102
RTVSPropertyOp39
 70
     1
102
RTVSPropertyOp40
 70
     1
102
RTVSPropertyOp41
 70
     1
102
RTVSPropertyOp42
 70
     1
102
RTVSPropertyOp43
 70
     1
102
RTVSPropertyOp44
 70
     1
102
RTVSPropertyOp45
 70
     1
102
RTVSPropertyOp46
 70
     1
102
RTVSPropertyOp47
 70
     1
102
RTVSPropertyOp48
 70
     1
102
RTVSPropertyOp49
 70
     1
102
RTVSPropertyOp50
 70
     1
102
RTVSPropertyOp51
 70
     0
102
RTVSPropertyOp52
 70
     0
102
RTVSPropertyOp53
 70
     1
102
RTVSPropertyOp54
 70
     1
102
RTVSPropertyOp55
 70
     1
102
RTVSPropertyOp56
 70
     1
102
RTVSPropertyOp57
 70
     1
102
RTVSPropertyOp58
 70
     1
102
RTVSPropertyOp59
 70
     1
102
RTVSPropertyOp60
 70
     1
102
RTVSPropertyOp61
 70
     1
102
RTVSPropertyOp62
 70
     1
  0
XRECORD
  5
4E49
102
{ACAD_REACTORS
330
4E48
102
}
330
4E48
100
AcDbXrecord
280
     1
102
RTVSPost2010Prop28
280
     0
102
RTVSPost2010PropOp28
 70
     1
102
RTVSPost2010Prop29
280
     1
102
RTVSPost2010PropOp29
 70
     1
102
RTVSPost2010Prop30
280
     1
102
RTVSPost2010PropOp30
 70
     1
102
RTVSPost2010Prop31
280
     0
102
RTVSPost2010PropOp31
 70
     1
102
RTVSPost2010Prop32
280
     0
102
RTVSPost2010PropOp32
 70
     1
102
RTVSPost2010Prop33
280
     0
102
RTVSPost2010PropOp33
 70
     1
102
RTVSPost2010Prop34
280
     0
102
RTVSPost2010PropOp34
 70
     1
102
RTVSPost2010Prop35
280
     0
102
RTVSPost2010PropOp35
 70
     1
102
RTVSPost2010Prop36
280
     0
102
RTVSPost2010PropOp36
 70
     1
102
RTVSPost2010Prop37
 90
       50
102
RTVSPost2010PropOp37
 70
     1
102
RTVSPost2010Prop38
140
0.0
102
RTVSPost2010PropOp38
 70
     1
102
RTVSPost2010Prop39
140
1.0
102
RTVSPost2010PropOp39
 70
     1
102
RTVSPost2010Prop40
 90
        0
102
RTVSPost2010PropOp40
 70
     1
102
RTVSPost2010Prop41ColorIndex
 90
       18
102
RTVSPost2010Prop41ColorRGB
 90
        0
102
RTVSPost2010PropOp41
 70
     1
102
RTVSPost2010Prop42
 90
       50
102
RTVSPost2010PropOp42
 70
     1
102
RTVSPost2010Prop43
 90
        3
102
RTVSPost2010PropOp43
 70
     1
102
RTVSPost2010Prop44ColorIndex
 90
        5
102
RTVSPost2010Prop44ColorRGB
 90
      255
102
RTVSPost2010PropOp44
 70
     1
102
RTVSPost2010Prop45
280
     0
102
RTVSPost2010PropOp45
 70
     1
102
RTVSPost2010Prop46
 90
       50
102
RTVSPost2010PropOp46
 70
     1
102
RTVSPost2010Prop47
 90
       50
102
RTVSPost2010PropOp47
 70
     1
102
RTVSPost2010Prop48
 90
       50
102
RTVSPost2010PropOp48
 70
     1
102
RTVSPost2010Prop49
280
     0
102
RTVSPost2010PropOp49
 70
     1
102
RTVSPost2010Prop50
 90
       50
102
RTVSPost2010PropOp50
 70
     1
102
RTVSPost2010Prop51ColorIndex
 90
      256
102
RTVSPost2010Prop51ColorRGB
 90
-16777216
102
RTVSPost2010PropOp51
 70
     0
102
RTVSPost2010Prop52
140
1.0
102
RTVSPost2010PropOp52
 70
     0
102
RTVSPost2010Prop53
 90
        2
102
RTVSPost2010PropOp53
 70
     1
102
RTVSPost2010Prop54
  1
strokes_ogs.tif
102
RTVSPost2010PropOp54
 70
     1
102
RTVSPost2010Prop55
280
     0
102
RTVSPost2010PropOp55
 70
     1
102
RTVSPost2010Prop56
140
1.0
102
RTVSPost2010PropOp56
 70
     1
102
RTVSPost2010Prop57
140
1.0
102
RTVSPost2010PropOp57
 70
     1
102
RTVSPropertyOp0
 70
     1
102
RTVSPropertyOp1
 70
     1
102
RTVSPropertyOp2
 70
     1
102
RTVSPropertyOp3
 70
     1
102
RTVSPropertyOp4
 70
     1
102
RTVSPropertyOp5
 70
     1
102
RTVSPropertyOp6
 70
     1
102
RTVSPropertyOp7
 70
     1
102
RTVSPropertyOp8
 70
     1
102
RTVSPropertyOp9
 70
     1
102
RTVSPropertyOp10
 70
     1
102
RTVSPropertyOp11
 70
     1
102
RTVSPropertyOp12
 70
     1
102
RTVSPropertyOp13
 70
     1
102
RTVSPropertyOp14
 70
     1
102
RTVSPropertyOp15
 70
     1
102
RTVSPropertyOp16
 70
     1
102
RTVSPropertyOp17
 70
     1
102
RTVSPropertyOp18
 70
     1
102
RTVSPropertyOp19
 70
     1
102
RTVSPropertyOp20
 70
     1
102
RTVSPropertyOp21
 70
     1
102
RTVSPropertyOp22
 70
     1
102
RTVSPropertyOp23
 70
     1
102
RTVSPropertyOp24
 70
     1
102
RTVSPropertyOp25
 70
     1
102
RTVSPropertyOp26
 70
     1
102
RTVSPropertyOp27
 70
     1
102
RTVSPropertyOp28
 70
     1
102
RTVSPropertyOp29
 70
     1
102
RTVSPropertyOp30
 70
     1
102
RTVSPropertyOp31
 70
     1
102
RTVSPropertyOp32
 70
     1
102
RTVSPropertyOp33
 70
     1
102
RTVSPropertyOp34
 70
     1
102
RTVSPropertyOp35
 70
     1
102
RTVSPropertyOp36
 70
     1
102
RTVSPropertyOp37
 70
     1
102
RTVSPropertyOp38
 70
     1
102
RTVSPropertyOp39
 70
     1
102
RTVSPropertyOp40
 70
     1
102
RTVSPropertyOp41
 70
     1
102
RTVSPropertyOp42
 70
     1
102
RTVSPropertyOp43
 70
     1
102
RTVSPropertyOp44
 70
     1
102
RTVSPropertyOp45
 70
     1
102
RTVSPropertyOp46
 70
     1
102
RTVSPropertyOp47
 70
     1
102
RTVSPropertyOp48
 70
     1
102
RTVSPropertyOp49
 70
     1
102
RTVSPropertyOp50
 70
     1
102
RTVSPropertyOp51
 70
     0
102
RTVSPropertyOp52
 70
     0
102
RTVSPropertyOp53
 70
     1
102
RTVSPropertyOp54
 70
     1
102
RTVSPropertyOp55
 70
     1
102
RTVSPropertyOp56
 70
     1
102
RTVSPropertyOp57
 70
     1
102
RTVSPropertyOp58
 70
     1
102
RTVSPropertyOp59
 70
     1
102
RTVSPropertyOp60
 70
     1
102
RTVSPropertyOp61
 70
     1
102
RTVSPropertyOp62
 70
     1
  0
ACDBASSOCARRAYACTIONBODY
  5
4DB5
330
4DB4
100
AcDbAssocActionBody
 90
        1
100
AcDbAssocParamBasedActionBody
 90
        0
 90
        0
 90
        3
360
4DB6
360
4DB7
360
4DBB
 90
        0
 90
        9
 90
        0
  1
AlignItems
 90
        0
 90
        1
 90
        0
330
0
330
0
 90
        0
  1
AxesAngle
 90
        2
 90
        1
 40
1.570796326794896
330
0
330
0
 90
        0
  1
ItemSpacing
 90
        1
 90
        1
 40
30.0
330
0
330
0
 90
        0
  1
Items
 90
        0
 90
        1
 90
       16
330
0
330
0
 90
        0
  1
LevelSpacing
 90
        1
 90
        1
 40
1.0
330
0
330
0
 90
        0
  1
Levels
 90
        0
 90
        1
 90
        1
330
0
330
0
 90
        0
  1
RowElevation
 90
        1
 90
        1
 40
0.0
330
0
330
0
 90
        0
  1
RowSpacing
 90
        1
 90
        1
 40
97.5
330
0
330
0
 90
        0
  1
Rows
 90
        0
 90
        1
 90
        1
330
0
330
0
100
AcDbAssocArrayActionBody
 90
        1
  1
AcDbAssocArrayRectangularParameters
 90
        0
 90
       16
  1
AcDbAssocArrayItem
100
AcDbAssocArrayItem
 90
        0
 90
        0
 90
        0
 90
        0
 90
        8
 11
0.0
 21
0.0
 31
0.0
330
4DBD
100
AcDbAssocArrayItem
 90
        0
 90
        1
 90
        0
 90
        0
 90
        8
 11
30.0
 21
0.0
 31
0.0
330
4DBE
100
AcDbAssocArrayItem
 90
        0
 90
        2
 90
        0
 90
        0
 90
        8
 11
60.0
 21
0.0
 31
0.0
330
4DBF
100
AcDbAssocArrayItem
 90
        0
 90
        3
 90
        0
 90
        0
 90
        8
 11
90.0
 21
0.0
 31
0.0
330
4DC0
100
AcDbAssocArrayItem
 90
        0
 90
        4
 90
        0
 90
        0
 90
        8
 11
120.0
 21
0.0
 31
0.0
330
4DC1
100
AcDbAssocArrayItem
 90
        0
 90
        5
 90
        0
 90
        0
 90
        8
 11
150.0
 21
0.0
 31
0.0
330
4DC2
100
AcDbAssocArrayItem
 90
        0
 90
        6
 90
        0
 90
        0
 90
        8
 11
180.0
 21
0.0
 31
0.0
330
4DC3
100
AcDbAssocArrayItem
 90
        0
 90
        7
 90
        0
 90
        0
 90
        8
 11
210.0
 21
0.0
 31
0.0
330
4DC4
100
AcDbAssocArrayItem
 90
        0
 90
        8
 90
        0
 90
        0
 90
        8
 11
240.0
 21
0.0
 31
0.0
330
4DC5
100
AcDbAssocArrayItem
 90
        0
 90
        9
 90
        0
 90
        0
 90
        8
 11
270.0
 21
0.0
 31
0.0
330
4DC6
100
AcDbAssocArrayItem
 90
        0
 90
       10
 90
        0
 90
        0
 90
        8
 11
300.0
 21
0.0
 31
0.0
330
4DC7
100
AcDbAssocArrayItem
 90
        0
 90
       11
 90
        0
 90
        0
 90
        8
 11
330.0
 21
0.0
 31
0.0
330
4DC8
100
AcDbAssocArrayItem
 90
        0
 90
       12
 90
        0
 90
        0
 90
        8
 11
360.0
 21
0.0
 31
0.0
330
4DC9
100
AcDbAssocArrayItem
 90
        0
 90
       13
 90
        0
 90
        0
 90
        8
 11
390.0
 21
0.0
 31
0.0
330
4DCA
100
AcDbAssocArrayItem
 90
        0
 90
       14
 90
        0
 90
        0
 90
        8
 11
420.0
 21
0.0
 31
0.0
330
4DCB
100
AcDbAssocArrayItem
 90
        0
 90
       15
 90
        0
 90
        0
 90
        8
 11
450.0
 21
0.0
 31
0.0
330
4DCC
 40
1.0
 40
0.0
 40
0.0
 40
589.8943726623065
 40
0.0
 40
1.0
 40
0.0
 40
1441.154661667708
 40
0.0
 40
0.0
 40
1.0
 40
0.0
 40
0.0
 40
0.0
 40
0.0
 40
1.0
  0
ACDBASSOCDEPENDENCY
  5
4DB8
330
4DB4
100
AcDbAssocDependency
 90
        2
 90
        1
290
     0
290
     1
290
     1
290
     1
 90
        0
330
4D7E
290
     0
330
0
330
0
360
0
 90
        1
  0
ACDBASSOCDEPENDENCY
  5
4DB9
330
4DB4
100
AcDbAssocDependency
 90
        2
 90
        1
290
     1
290
     0
290
     1
290
     1
 90
        0
330
4D7B
290
     0
330
0
330
0
360
0
 90
        2
  0
ACDBASSOCDEPENDENCY
  5
4DBA
330
4DB4
100
AcDbAssocDependency
 90
        2
 90
        0
290
     1
290
     1
290
     1
290
     1
 90
-2147483648
330
4D81
290
     0
330
0
330
0
360
0
 90
        3
  0
ACDBASSOCARRAYACTIONBODY
  5
4DF2
330
4DF1
100
AcDbAssocActionBody
 90
        1
100
AcDbAssocParamBasedActionBody
 90
        0
 90
        0
 90
        3
360
4DF3
360
4DF4
360
4DF8
 90
        0
 90
        9
 90
        0
  1
AlignItems
 90
        0
 90
        1
 90
        0
330
0
330
0
 90
        0
  1
AxesAngle
 90
        2
 90
        1
 40
1.570796326794896
330
0
330
0
 90
        0
  1
ItemSpacing
 90
        1
 90
        1
 40
15.0
330
0
330
0
 90
        0
  1
Items
 90
        0
 90
        1
 90
       32
330
0
330
0
 90
        0
  1
LevelSpacing
 90
        1
 90
        1
 40
1.0
330
0
330
0
 90
        0
  1
Levels
 90
        0
 90
        1
 90
        1
330
0
330
0
 90
        0
  1
RowElevation
 90
        1
 90
        1
 40
0.0
330
0
330
0
 90
        0
  1
RowSpacing
 90
        1
 90
        1
 40
916.4999999999997
330
0
330
0
 90
        0
  1
Rows
 90
        0
 90
        1
 90
        1
330
0
330
0
100
AcDbAssocArrayActionBody
 90
        1
  1
AcDbAssocArrayRectangularParameters
 90
        0
 90
       32
  1
AcDbAssocArrayItem
100
AcDbAssocArrayItem
 90
        0
 90
        0
 90
        0
 90
        0
 90
        8
 11
0.0
 21
0.0
 31
0.0
330
4DFA
100
AcDbAssocArrayItem
 90
        0
 90
        1
 90
        0
 90
        0
 90
        8
 11
15.0
 21
0.0
 31
0.0
330
4DFB
100
AcDbAssocArrayItem
 90
        0
 90
        2
 90
        0
 90
        0
 90
        8
 11
30.0
 21
0.0
 31
0.0
330
4DFC
100
AcDbAssocArrayItem
 90
        0
 90
        3
 90
        0
 90
        0
 90
        8
 11
45.0
 21
0.0
 31
0.0
330
4DFD
100
AcDbAssocArrayItem
 90
        0
 90
        4
 90
        0
 90
        0
 90
        8
 11
60.0
 21
0.0
 31
0.0
330
4DFE
100
AcDbAssocArrayItem
 90
        0
 90
        5
 90
        0
 90
        0
 90
        8
 11
75.0
 21
0.0
 31
0.0
330
4DFF
100
AcDbAssocArrayItem
 90
        0
 90
        6
 90
        0
 90
        0
 90
        8
 11
90.0
 21
0.0
 31
0.0
330
4E00
100
AcDbAssocArrayItem
 90
        0
 90
        7
 90
        0
 90
        0
 90
        8
 11
105.0
 21
0.0
 31
0.0
330
4E01
100
AcDbAssocArrayItem
 90
        0
 90
        8
 90
        0
 90
        0
 90
        8
 11
120.0
 21
0.0
 31
0.0
330
4E02
100
AcDbAssocArrayItem
 90
        0
 90
        9
 90
        0
 90
        0
 90
        8
 11
135.0
 21
0.0
 31
0.0
330
4E03
100
AcDbAssocArrayItem
 90
        0
 90
       10
 90
        0
 90
        0
 90
        8
 11
150.0
 21
0.0
 31
0.0
330
4E04
100
AcDbAssocArrayItem
 90
        0
 90
       11
 90
        0
 90
        0
 90
        8
 11
165.0
 21
0.0
 31
0.0
330
4E05
100
AcDbAssocArrayItem
 90
        0
 90
       12
 90
        0
 90
        0
 90
        8
 11
180.0
 21
0.0
 31
0.0
330
4E06
100
AcDbAssocArrayItem
 90
        0
 90
       13
 90
        0
 90
        0
 90
        8
 11
195.0
 21
0.0
 31
0.0
330
4E07
100
AcDbAssocArrayItem
 90
        0
 90
       14
 90
        0
 90
        0
 90
        8
 11
210.0
 21
0.0
 31
0.0
330
4E08
100
AcDbAssocArrayItem
 90
        0
 90
       15
 90
        0
 90
        0
 90
        8
 11
225.0
 21
0.0
 31
0.0
330
4E09
100
AcDbAssocArrayItem
 90
        0
 90
       16
 90
        0
 90
        0
 90
        8
 11
240.0
 21
0.0
 31
0.0
330
4E0A
100
AcDbAssocArrayItem
 90
        0
 90
       17
 90
        0
 90
        0
 90
        8
 11
255.0
 21
0.0
 31
0.0
330
4E0B
100
AcDbAssocArrayItem
 90
        0
 90
       18
 90
        0
 90
        0
 90
        8
 11
270.0
 21
0.0
 31
0.0
330
4E0C
100
AcDbAssocArrayItem
 90
        0
 90
       19
 90
        0
 90
        0
 90
        8
 11
285.0
 21
0.0
 31
0.0
330
4E0D
100
AcDbAssocArrayItem
 90
        0
 90
       20
 90
        0
 90
        0
 90
        8
 11
300.0
 21
0.0
 31
0.0
330
4E0E
100
AcDbAssocArrayItem
 90
        0
 90
       21
 90
        0
 90
        0
 90
        8
 11
315.0
 21
0.0
 31
0.0
330
4E0F
100
AcDbAssocArrayItem
 90
        0
 90
       22
 90
        0
 90
        0
 90
        8
 11
330.0
 21
0.0
 31
0.0
330
4E10
100
AcDbAssocArrayItem
 90
        0
 90
       23
 90
        0
 90
        0
 90
        8
 11
345.0
 21
0.0
 31
0.0
330
4E11
100
AcDbAssocArrayItem
 90
        0
 90
       24
 90
        0
 90
        0
 90
        8
 11
360.0
 21
0.0
 31
0.0
330
4E12
100
AcDbAssocArrayItem
 90
        0
 90
       25
 90
        0
 90
        0
 90
        8
 11
375.0
 21
0.0
 31
0.0
330
4E13
100
AcDbAssocArrayItem
 90
        0
 90
       26
 90
        0
 90
        0
 90
        8
 11
390.0
 21
0.0
 31
0.0
330
4E14
100
AcDbAssocArrayItem
 90
        0
 90
       27
 90
        0
 90
        0
 90
        8
 11
405.0
 21
0.0
 31
0.0
330
4E15
100
AcDbAssocArrayItem
 90
        0
 90
       28
 90
        0
 90
        0
 90
        8
 11
420.0
 21
0.0
 31
0.0
330
4E16
100
AcDbAssocArrayItem
 90
        0
 90
       29
 90
        0
 90
        0
 90
        8
 11
435.0
 21
0.0
 31
0.0
330
4E17
100
AcDbAssocArrayItem
 90
        0
 90
       30
 90
        0
 90
        0
 90
        8
 11
450.0
 21
0.0
 31
0.0
330
4E18
100
AcDbAssocArrayItem
 90
        0
 90
       31
 90
        0
 90
        0
 90
        8
 11
465.0
 21
0.0
 31
0.0
330
4E19
 40
1.0
 40
0.0
 40
0.0
 40
596.8943726623065
 40
0.0
 40
1.0
 40
0.0
 40
619.324337419885
 40
0.0
 40
0.0
 40
1.0
 40
0.0
 40
0.0
 40
0.0
 40
0.0
 40
1.0
  0
ACDBASSOCDEPENDENCY
  5
4DF5
330
4DF1
100
AcDbAssocDependency
 90
        2
 90
        1
290
     0
290
     1
290
     1
290
     1
 90
        0
330
4DD1
290
     0
330
0
330
0
360
0
 90
        1
  0
ACDBASSOCDEPENDENCY
  5
4DF6
330
4DF1
100
AcDbAssocDependency
 90
        2
 90
        1
290
     1
290
     0
290
     1
290
     1
 90
        0
330
4DCE
290
     0
330
0
330
0
360
0
 90
        2
  0
ACDBASSOCDEPENDENCY
  5
4DF7
330
4DF1
100
AcDbAssocDependency
 90
        2
 90
        0
290
     1
290
     1
290
     1
290
     1
 90
-2147483648
330
4DD4
290
     0
330
0
330
0
360
0
 90
        3
  0
ACDBASSOCVERTEXACTIONPARAM
  5
4DB6
330
4DB5
100
AcDbAssocActionParam
 90
        0
  1
BaseNormal
100
AcDbAssocSingleDependencyActionParam
 90
        0
330
0
100
AcDbAssocVertexActionParam
 90
        0
 10
0.0
 20
0.0
 30
1.0
  0
ACDBASSOCVERTEXACTIONPARAM
  5
4DB7
330
4DB5
100
AcDbAssocActionParam
 90
        0
  1
Origin
100
AcDbAssocSingleDependencyActionParam
 90
        0
330
0
100
AcDbAssocVertexActionParam
 90
        0
 10
0.0
 20
0.0
 30
0.0
  0
ACDBASSOCVERTEXACTIONPARAM
  5
4DBB
330
4DB5
100
AcDbAssocActionParam
 90
        0
  1
basePoint
100
AcDbAssocSingleDependencyActionParam
 90
        0
330
0
100
AcDbAssocVertexActionParam
 90
        0
 10
0.0
 20
0.0
 30
0.0
  0
ACDBASSOCVERTEXACTIONPARAM
  5
4DF3
330
4DF2
100
AcDbAssocActionParam
 90
        0
  1
BaseNormal
100
AcDbAssocSingleDependencyActionParam
 90
        0
330
0
100
AcDbAssocVertexActionParam
 90
        0
 10
0.0
 20
0.0
 30
1.0
  0
ACDBASSOCVERTEXACTIONPARAM
  5
4DF4
330
4DF2
100
AcDbAssocActionParam
 90
        0
  1
Origin
100
AcDbAssocSingleDependencyActionParam
 90
        0
330
0
100
AcDbAssocVertexActionParam
 90
        0
 10
0.0
 20
0.0
 30
0.0
  0
ACDBASSOCVERTEXACTIONPARAM
  5
4DF8
330
4DF2
100
AcDbAssocActionParam
 90
        0
  1
basePoint
100
AcDbAssocSingleDependencyActionParam
 90
        0
330
0
100
AcDbAssocVertexActionParam
 90
        0
 10
0.0
 20
0.0
 30
0.0
  0
ENDSEC
  0
EOF
